Дом, милый дом / Home Sweet Home (Дидье Ле Пешо / Didier Le Pecheur / Didier Le Pêcheur) [2008, Франция, комедия, DVB] Original (Fre) + Sub (rus)

 
Автор Сообщение

TorrentFilm ®

Пол:

Стаж: 2 года

Сообщений: 7741



Награды: Нет

Торрент-статистика

Создавать темы 31-Дек-2014 00:02

[Цитировать]

Дом, милый дом
Home Sweet Home- Страна: Франция
Жанр: комедия
Год выпуска: 2008
Продолжительность: 01:37:49
Перевод: Субтитры (перевод М.Лабори, Éclair Group)
Cубтитры: русские
Оригинальная аудиодорожка: французский
Режиссер: Дидье Ле Пешо / Didier Le PêcheurВ ролях: Жюдит Годреш / Judith Godrèche (Claire), Патрик Шене / Patrick Chesnais (Gédéon), Даниэль Прево / Daniel Prévost (Albert), Александр Астье / Alexandre Astier (Joubert), Лоран Дойч / Lorànt Deutsch (Le barman), Габриэль Валенси / Gabrielle Valensi (Lucie), Николя Гоб / Nicolas Gob (Edwin)
Описание: Семейная тайна – это бомба замедленного действия. Альбер и Гидеон, два пожилых мужчины, вот уже 30 лет составляют странную пару. После смерти жены Альбера, несмотря на несхожесть характеров, они стали жить в одном доме. Когда после нескольких лет отсутствия Клер, дочь Альбера, отправится к отцу в поисках утешения от неудач в сентиментальных отношениях, она неожиданно окажется свидетелем воскрешения старых тайн с участием представителей власти, полиции и горе-соблазнителя сыщика…
Доп. информация: TV5MONDE DVB-S

Качество видео: DVB
Формат видео: MKV
Видео: MPEG Video 2, 704x576@1024x576 (16:9), 25 fps, ~2848 kbps avg, 0.281 bit/pixel
Аудио: Французский (MPEG Audio 2, 2 ch, 48 kHz, ~192.00 kbps avg)
Формат субтитров: hardsub (неотключаемые)

MediaInfo

ОбщееУникальный идентификатор : 192313621302127041679571477449473516233 (0x90AE4196300870258E93651BD5DFE2C9)Полное имя : E:\My Torrents 2\[apreder]Home_Sweet_Home(2008)DVB.mkvФормат : MatroskaВерсия формата : Version 2Размер файла : 2,12 ГбайтПродолжительность : 1 ч. 37 м.Режим общего битрейта : ПеременныйОбщий поток : 3102 Кбит/секДата кодирования : UTC 2014-12-29 15:31:04Программа кодирования : mkvmerge v7.4.0 ('Circles') 64bit built on Dec 12 2014 12:19:56Библиотека кодирования : libebml v1.3.0 + libmatroska v1.4.1
ВидеоИдентификатор : 1Формат : MPEG VideoВерсия формата : Version 2Профиль формата : Main@MainПараметр BVOP формата : ДаПараметр матрицы формата : ВыборочнаяПараметр GOP формата : M=3, N=15Format_Settings_PictureStructure : FrameИдентификатор кодека : V_MPEG2Идентификатор кодека/Информация : MPEG 1 or 2 VideoПродолжительность : 1 ч. 37 м.Вид битрейта : ПеременныйБитрейт : 2848 Кбит/секШирина : 704 пикселяВысота : 576 пикселейСоотношение сторон : 16:9Режим частоты кадров : ПостоянныйЧастота кадров : 25,000 кадров/секСтандарт вещания : PALЦветовое пространство : YUVСубдискретизация насыщенности : 4:2:0Битовая глубина : 8 битТип развёртки : ЧересстрочнаяПорядок развёртки : Верхнее поле первоеМетод сжатия : С потерямиБит/(Пиксели*Кадры) : 0.281Временной код первого кадра : 00:00:00:00Оригинал временного кода : Group of pictures headerРазмер потока : 1,95 Гбайт (92%)Default : ДаForced : НетGop_OpenClosed_FirstFrame : Closed
АудиоИдентификатор : 2Формат : MPEG AudioВерсия формата : Version 1Профиль формата : Layer 2Идентификатор кодека : A_MPEG/L2Идентификатор кодека/Подсказка : MP2Продолжительность : 1 ч. 37 м.Вид битрейта : ПостоянныйБитрейт : 192 Кбит/секКаналы : 2 каналаЧастота : 48,0 КГцМетод сжатия : С потерямиРазмер потока : 134 Мбайт (6%)Язык : FrenchDefault : ДаForced : Нет

Скриншот c названием фильма

Скриншоты


Резервные скриншоты


-[2'013]
[Профиль] [ЛС]

Создавать темы 06-Авг-2015 22:50 (спустя 7 месяцев 6 дней)

Топик был перенесен из форума Фильмы до 2014 года в форум Фильмы до 2012 года
sergej644
 

Создавать темы 12-Июн-2016 08:51 (спустя 1 год 5 месяцев)

Топик был перенесен из форума Фильмы 2011 года в форум Фильмы 2006-2008 года
Russian Mafia
 
Кто просматривает тему:

Форум Тема Автор Размер
Фильмы 2015 года Дом, милый ад / Home Sweet Hell (Энтони Бёрнс)[2015, драма, комедия] HDRip | iTunes adeei 1.46 GB
Фильмы 2015 года Дом, милый ад / Север ада / Home Sweet Hell (Энтони Бёрнс / Anthony Burns) [2015, США, драма, комедия, BDRip] MVO + Original (Eng) + Sub (Rus, Eng) TorrentFilm 1.77 GB
Фильмы 2012 года С новым годом, мамы! (2012) BDRip от HQ-ViDEO sergej644 1.46 GB
Фильмы (HD DVD, Blu-ray и BDRemux) С новым годом, мамы! (Сарик Андреасян, Артем Аксененко, Дмитрий Грачев) [2012, Россия, комедия, семейный, BDRip 720p] + Original Rus painkiller 3.61 GB
Фильмы (HD Rips | 720p, 1080p) С новым годом, мамы! (Сарик Андреасян, Артем Аксененко, Дмитрий Грачев) [2012, Россия, комедия, семейный, Blu-ray Disc 1080p] Original Rus TorrentFilm 13.29 GB
Фильмы (DVD 5/9) С новым годом, мамы! (Сарик Андреасян, Артем Аксененко, Дмитрий Грачев) [2012, Россия, комедия, семейный, DVD5 (Сжатый)] TorrentFilm 4.36 GB
Фильмы (DVD 5/9) С новым годом, мамы! (Сарик Андреасян, Артем Аксененко, Дмитрий Грачев) [2012, Россия, комедия, семейный, DVD9] R5 Original Rus TorrentFilm 5.73 GB
Фильмы (HD DVD, Blu-ray и BDRemux) Самолетом, поездом, машиной / Planes, Trains & Automobiles (Джон Хьюз / John Hughes) [1987, драма, комедия, Blu-ray Disc (custom) 1080p] sergej644 42.25 GB
Показать сообщения:    

Текущее время: Сегодня 08:30

Часовой пояс: GMT



Вы не можете начинать темы
Вы не можете отвечать на сообщения
Вы не можете редактировать свои сообщения
Вы не можете удалять свои сообщения
Вы не можете голосовать в опросах
Вы не можете прикреплять файлы к сообщениям
Вы не можете скачивать файлы