Дом летающих кинжалов / Shi mian mai fu (2004) BDRip 1080p от R.G. HD-Films | 60 fps

 
Автор Сообщение

sergej644 ®

Пол:

Стаж: 4 года 11 месяцев

Сообщений: 6043

Откуда: Soviet Union



Награды: Нет

Торрент-статистика

Создавать темы 29-Сен-2014 17:40

[Цитировать]

--Дом летающих кинжалов / Shi mian mai fu
-Название: Дом летающих кинжалов
Оригинальное название: Shi mian mai fu
Год выпуска: 2004
Страна: Китай, Гонконг
Жанр: фэнтези, боевик, драма, мелодрама, приключения
Продолжительность: 01:59:31
Перевод: Дубляж
Субтитры: русские (Полные), английские (Полные),-Режиссер: Чжан Имоу / Zhang Yimou-В ролях: Такэси Канэсиро (Jin), Энди Лау (Leo), Чжан Цзыи (Xiao Mei), Сун Даньдань (Yee), Чжао Хунфэй (Performer), Джан Гуо (Performer), Шу Чжан (Performer), Джиушен Ванг (Performer), Чжан Чжэнъюн (Performer), Ван Юнсинь (Performer), Донг Лью (Performer), Ки Зи (Performer)-Описание:
Фильм рассказывает о тайном агенте императорской полиции, который охотится за лидерами повстанческого движения и завоёвывает для этого доверие, по его данным, дочери лидера мятежников и сам же попадает в ловушку...-Рейтинг

imdb.com: 7.60 (78 851)
MPAA: PG-13 - Детям до 13 лет просмотр не желателен-Автор рипа:Tiberiumsun69-Качество: BDRip 1080p / 60 FPS
Формат: MKV
Видео кодек: AVC
Аудио кодек:AC3, DTS
Видео: AVC, 1920x800, 13604 kbps, 59,940 fps
Аудио №1: русский / AC3 / 5.1 / 48 kHz / 640 kbps / 16 bit |Дубляж|
Аудио №2: китайский / AC3 / 5.1 / 48 kHz / 640 kbps / 16 bit
Аудио №3: русский / DTS / 5.1 / 48 kHz / 755 kbps / 24 bit |Дубляж|
Навигация по главам: есть- -

Внимание!

Перед скачиванием обязательно проверьте сэмпл на своем оборудовании.

Благодарности

Raven за помощ при создании релиза и обложки

MI

General
Unique ID : 254235936398021526271749140028105043924 (0xBF440F6ED39407CC97D4625772D62FD4)
Complete name : A:1080p 60fpsДом летающих кинжалов 1080p 60fps.mkv
Format : Matroska
Format version : Version 4 / Version 2
File size : 13.3 GiB
Duration : 1h 59mn
Overall bit rate : 16.0 Mbps
Encoded date : UTC 2014-09-22 16:22:52
Writing application : mkvmerge v6.9.1 ('Blue Panther') 64bit built on Apr 18 2014 18:23:38
Writing library : libebml v1.3.0 + libmatroska v1.4.1
Video
ID : 1
Format : AVC
Format/Info : Advanced Video Codec
Format profile : High@L4.1
Format settings, CABAC : Yes
Format settings, ReFrames : 4 frames
Codec ID : V_MPEG4/ISO/AVC
Duration : 1h 59mn
Bit rate : 13.6 Mbps
Width : 1 920 pixels
Height : 800 pixels
Display aspect ratio : 2.40:1
Frame rate : 59.940 fps
Color space : YUV
Chroma subsampling : 4:2:0
Bit depth : 8 bits
Scan type : Progressive
Bits/(Pixel*Frame) : 0.148
Stream size : 11.4 GiB (85%)
Writing library : x264 core 142 r2431 ac76440
Encoding settings : cabac=1 / ref=4 / deblock=1:0:0 / analyse=0x3:0 / me=umh / subme=9 / psy=1 / psy_rd=1.00:0.10 / mixed_ref=1 / me_range=42 / chroma_me=0 / trellis=1 / 8x8dct=1 / cqm=0 / deadzone=21,11 / fast_pskip=0 / chroma_qp_offset=-3 / threads=12 / lookahead_threads=1 / sliced_threads=0 / nr=0 / decimate=0 / interlaced=0 / bluray_compat=0 / constrained_intra=0 / bframes=5 / b_pyramid=2 / b_adapt=2 / b_bias=0 / direct=1 / weightb=1 / open_gop=0 / weightp=2 / keyint=594 / keyint_min=59 / scenecut=40 / intra_refresh=0 / rc=crf / mbtree=0 / crf=18.0 / qcomp=0.60 / qpmin=0 / qpmax=69 / qpstep=4 / ip_ratio=1.40 / pb_ratio=1.30 / aq=1:0.90
Language : English
Default : Yes
Forced : No
Audio #1
ID : 2
Format : AC-3
Format/Info : Audio Coding 3
Mode extension : CM (complete main)
Codec ID : A_AC3
Duration : 1h 59mn
Bit rate mode : Constant
Bit rate : 640 Kbps
Channel(s) : 6 channels
Channel positions : Front: L C R, Side: L R, LFE
Sampling rate : 48.0 KHz
Bit depth : 16 bits
Compression mode : Lossy
Stream size : 547 MiB (4%)
Title : Дубляж
Language : Russian
Default : Yes
Forced : No
Audio #2
ID : 3
Format : AC-3
Format/Info : Audio Coding 3
Mode extension : CM (complete main)
Codec ID : A_AC3
Duration : 1h 59mn
Bit rate mode : Constant
Bit rate : 640 Kbps
Channel(s) : 6 channels
Channel positions : Front: L C R, Side: L R, LFE
Sampling rate : 48.0 KHz
Bit depth : 16 bits
Compression mode : Lossy
Stream size : 547 MiB (4%)
Title : Оригинал
Language : Chinese
Default : No
Forced : No
Audio #3
ID : 4
Format : DTS
Format/Info : Digital Theater Systems
Codec ID : A_DTS
Duration : 1h 59mn
Bit rate mode : Constant
Bit rate : 755 Kbps
Channel(s) : 6 channels
Channel positions : Front: L C R, Side: L R, LFE
Sampling rate : 48.0 KHz
Bit depth : 24 bits
Compression mode : Lossy
Stream size : 645 MiB (5%)
Title : Дубляж
Language : Russian
Default : No
Forced : No
Text #1
ID : 5
Format : UTF-8
Codec ID : S_TEXT/UTF8
Codec ID/Info : UTF-8 Plain Text
Title : Полные
Language : Russian
Default : No
Forced : No
Text #2
ID : 6
Format : UTF-8
Codec ID : S_TEXT/UTF8
Codec ID/Info : UTF-8 Plain Text
Title : Полные
Language : English
Default : No
Forced : No
Menu
00:00:00.000 : en:00:00:00.000
00:01:13.490 : en:00:01:13.490
00:11:16.384 : en:00:11:16.384
00:19:21.160 : en:00:19:21.160
00:23:14.685 : en:00:23:14.685
00:34:33.905 : en:00:34:33.905
00:43:07.126 : en:00:43:07.126
00:53:43.137 : en:00:53:43.137
01:02:51.768 : en:01:02:51.768
01:10:37.108 : en:01:10:37.108
01:18:40.341 : en:01:18:40.341
01:27:55.437 : en:01:27:55.437
01:34:03.721 : en:01:34:03.721
01:41:10.982 : en:01:41:10.982
01:47:33.030 : en:01:47:33.030
01:54:21.855 : en:01:54:21.855
01:59:31.623 : en:01:59:31.623

Скриншоты

-
[Профиль] [ЛС]
Кто просматривает тему:

Показать сообщения:    

Текущее время: Сегодня 08:09

Часовой пояс: GMT



Вы не можете начинать темы
Вы не можете отвечать на сообщения
Вы не можете редактировать свои сообщения
Вы не можете удалять свои сообщения
Вы не можете голосовать в опросах
Вы не можете прикреплять файлы к сообщениям
Вы не можете скачивать файлы