Дом крокодилов / Das Haus der Krokodile (2012) BDRip 720p от CINEMANIA | P

 
Автор Сообщение

sergej644 ®

Пол:

Стаж: 4 года 11 месяцев

Сообщений: 6040

Откуда: Soviet Union



Награды: Нет

Торрент-статистика

Создавать темы 11-Ноя-2014 11:02

[Цитировать]

Информация о фильме
Название: Дом крокодилов
Оригинальное название: Das Haus der Krokodile / Victor and the Secret of Crocodile Mansion
Год выхода: 2012
Жанр: детектив, приключения, семейный
Режиссер: Сирил Босс, Филипп Штеннерт
В ролях: Кристо Феркич, Йоанна Феркич, Вийессна Феркич, Кристоф Мария Гербст, Гудрун Риттер, Вальдемар Кобус, Элена Охснер, Уве Фридрихсен, Сусанна Беркхемер
О фильме:
Семейство Ларош перебираются в доставшийся им от дяди старинный особняк, заполненный настоящим антиквариатом. Вскоре родители уезжают по делам, оставив 11-летнего сына Виктора на попечение двух его старших сестер. Виктор необычный мальчик: игре со сверстниками он предпочитает обследование старого дома и поиски приключений. И хотя ему запрещено трогать старые вещи и заходить в дядин кабинет, Виктор не следует запретам и случайно открывает тайник, спрятанный в письменном столе, а в тайнике находит альбом с рисунками 11 летней Сесилии Ларош.
От сестер Виктор узнает, что так звали дядину дочь, которая умерла 40 лет назад при невыясненных обстоятельствах. Используя рисунки девочки в качестве ключа для разгадывания тайны, Виктор принимается за собственное расследование. Среди вещей дяди есть чучела крокодилов, на которые постоянно натыкается мальчик, а в альбоме Сесилии он находит спрятанную и зашифрованную записку, юному детективу остается понять скрытые подсказки и следовать им.

Выпущено: Германия
Продолжительность: 01:34:58
Озвучивание: Профессиональное (многоголосое) [ТК Семейное HD]
Файл
Формат: MKV
Качество: BDRip 720p [EPHEMERiD]
Видео: 2286 kb/s, 1280x544
Аудио: Russian: AC3, 192 kb/s (2 ch) / German: DTS, 1510 kb/s (6 ch)
Субтитры: Russian [Олеся Вульф], English
Дополнительно: Сохранены оригинальные чаптеры как на Blu-ray
Размер: 2.70 GB
------------
Скачать: Сэмпл
------------
Релиз группы: -

MediaInfo

General
Victor.and.the.Secret.of.Crocodile.Mansion.2012.Blu.Ray.720p.CINEMANIA.mkv
Format : Matroska
Format version : Version 4 / Version 2
File size : 2.70 GiB
Duration : 1h 34mn
Overall bit rate : 4 068 Kbps
Movie name : Release Group CINEMANIA
Encoded date : UTC 2014-11-05 13:29:53
Writing application : mkvmerge v7.3.0 ('Nouages') 64bit built on Oct 22 2014 18:53:34
Writing library : libebml v1.3.0 + libmatroska v1.4.1
Video
ID : 1
Format : AVC
Format/Info : Advanced Video Codec
Format profile : High@L4.1
Format settings, CABAC : Yes
Format settings, ReFrames : 5 frames
Codec ID : V_MPEG4/ISO/AVC
Duration : 1h 34mn
Bit rate : 2 286 Kbps
Width : 1 280 pixels
Height : 544 pixels
Display aspect ratio : 2.35:1
Frame rate mode : Constant
Frame rate : 24.000 fps
Color space : YUV
Chroma subsampling : 4:2:0
Bit depth : 8 bits
Scan type : Progressive
Bits/(Pixel*Frame) : 0.137
Stream size : 1.52 GiB (56%)
Title : Release Group CINEMANIA
Writing library : x264 core 128 r2216 198a7ea
Encoding settings : cabac=1 / ref=5 / deblock=1:-1:-1 / analyse=0x3:0x113 / me=umh / subme=7 / psy=1 / psy_rd=1.00:0.15 / mixed_ref=1 / me_range=16 / chroma_me=1 / trellis=1 / 8x8dct=1 / cqm=0 / deadzone=21,11 / fast_pskip=0 / chroma_qp_offset=-3 / threads=18 / lookahead_threads=3 / sliced_threads=0 / nr=0 / decimate=1 / interlaced=0 / bluray_compat=0 / constrained_intra=0 / bframes=3 / b_pyramid=2 / b_adapt=1 / b_bias=0 / direct=1 / weightb=1 / open_gop=0 / weightp=2 / keyint=250 / keyint_min=24 / scenecut=40 / intra_refresh=0 / rc_lookahead=40 / rc=crf / mbtree=1 / crf=20.0 / qcomp=0.60 / qpmin=0 / qpmax=69 / qpstep=4 / ip_ratio=1.40 / aq=1:1.00
Default : Yes
Forced : No
Audio #1
ID : 2
Format : AC-3
Format/Info : Audio Coding 3
Mode extension : CM (complete main)
Format settings, Endianness : Big
Codec ID : A_AC3
Duration : 1h 34mn
Bit rate mode : Constant
Bit rate : 192 Kbps
Channel(s) : 2 channels
Channel positions : Front: L R
Sampling rate : 48.0 KHz
Bit depth : 16 bits
Compression mode : Lossy
Stream size : 130 MiB (5%)
Title : ТК Семейное HD
Language : Russian
Default : Yes
Forced : Yes
Audio #2
ID : 3
Format : DTS
Format/Info : Digital Theater Systems
Mode : 16
Format settings, Endianness : Big
Codec ID : A_DTS
Duration : 1h 34mn
Bit rate mode : Constant
Bit rate : 1 509 Kbps
Channel(s) : 6 channels
Channel positions : Front: L C R, Side: L R, LFE
Sampling rate : 48.0 KHz
Bit depth : 24 bits
Compression mode : Lossy
Stream size : 1.00 GiB (37%)
Language : German
Default : No
Forced : No
Text #2
ID : 5
Format : UTF-8
Codec ID : S_TEXT/UTF8
Codec ID/Info : UTF-8 Plain Text
Title : Олеся Вульф
Language : Russian
Default : No
Forced : No
Text #3
ID : 6
Format : UTF-8
Codec ID : S_TEXT/UTF8
Codec ID/Info : UTF-8 Plain Text
Language : English
Default : No
Forced : No
Menu
00:00:00.000 : en:00:00:00.000
00:04:30.917 : en:00:04:30.917
00:10:03.333 : en:00:10:03.333
00:14:55.333 : en:00:14:55.333
00:19:52.292 : en:00:19:52.292
00:25:43.792 : en:00:25:43.792
00:31:26.750 : en:00:31:26.750
00:35:36.125 : en:00:35:36.125
00:41:51.167 : en:00:41:51.167
00:46:53.750 : en:00:46:53.750
00:52:33.333 : en:00:52:33.333
00:58:17.542 : en:00:58:17.542
01:03:58.125 : en:01:03:58.125
01:09:03.833 : en:01:09:03.833
01:14:30.458 : en:01:14:30.458
01:19:21.417 : en:01:19:21.417
01:23:48.083 : en:01:23:48.083
01:29:55.375 : en:01:29:55.375

Скриншоты

--
[Профиль] [ЛС]

Создавать темы 06-Авг-2015 22:58 (спустя 8 месяцев 25 дней)

Топик был перенесен из форума Фильмы до 2014 года в форум Фильмы 2012 года
sergej644
 
Кто просматривает тему:

Показать сообщения:    

Текущее время: Сегодня 04:48

Часовой пояс: GMT



Вы не можете начинать темы
Вы не можете отвечать на сообщения
Вы не можете редактировать свои сообщения
Вы не можете удалять свои сообщения
Вы не можете голосовать в опросах
Вы не можете прикреплять файлы к сообщениям
Вы не можете скачивать файлы