Дом, который построил Джек (Андрей Хржановский) [1976 г., мультфильм, DVB]

 
Автор Сообщение

painkiller ®

Стаж: 2 года 3 месяца

Сообщений: 582



Награды: Нет

Торрент-статистика

Создавать темы 27-Авг-2014 15:32

[Цитировать]

Дом, который построил Джек
Жанр: мультфильм
Год выпуска: 1976
Продолжительность: 00:09:33
Режиссёр: Андрей Хржановский
Описание: Мультипликационный фильм по стихотворению С.Я. Маршака из цикла «Из английской поэзии», представляющий собой веселую и остроумную иллюстрацию этого стихотворения ...
Доп. информация:

Трансляция спутникового канала: "Звезда"
Качество видео: DVB
Формат видео: MPEG-PS
Видео: MPEG2 Video, 720x576, 25 fps, 3800 kbps
Аудио: MPEG Audio, 2 сh, 48 kHz, 192 kbps

MediaInfo

General
Complete name : D:\Дом который построил Джек. (1976)_DVB by SLuMeP.mpg
Format : MPEG-PS
File size : 279 MiB
Duration : 9mn 33s
Overall bit rate mode : Variable
Overall bit rate : 4 090 Kbps
Video
ID : 224 (0xE0)
Format : MPEG Video
Format version : Version 2
Format profile : Main@Main
Format settings, BVOP : Yes
Format settings, Matrix : Custom
Format settings, GOP : Variable
Duration : 9mn 33s
Bit rate mode : Variable
Bit rate : 3 817 Kbps
Maximum bit rate : 15.0 Mbps
Width : 720 pixels
Height : 576 pixels
Display aspect ratio : 4:3
Frame rate : 25.000 fps
Standard : PAL
Color space : YUV
Chroma subsampling : 4:2:0
Bit depth : 8 bits
Scan type : Interlaced
Scan order : Top Field First
Compression mode : Lossy
Bits/(Pixel*Frame) : 0.368
Time code of first frame : 00:00:00:00
Time code source : Group of pictures header
Stream size : 261 MiB (93%)
Audio
ID : 192 (0xC0)
Format : MPEG Audio
Format version : Version 1
Format profile : Layer 2
Duration : 9mn 33s
Bit rate mode : Constant
Bit rate : 192 Kbps
Channel(s) : 2 channels
Sampling rate : 48.0 KHz
Compression mode : Lossy
Stream size : 13.1 MiB (5%)

Скриншоты

[Профиль] [ЛС]
Кто просматривает тему:

Показать сообщения:    

Текущее время: Сегодня 06:07

Часовой пояс: GMT



Вы не можете начинать темы
Вы не можете отвечать на сообщения
Вы не можете редактировать свои сообщения
Вы не можете удалять свои сообщения
Вы не можете голосовать в опросах
Вы не можете прикреплять файлы к сообщениям
Вы не можете скачивать файлы