Домино / Domino (Тони Скотт / Tony Scott) [2005, США, Франция, Великобритания, боевик, триллер, драма, криминал, BDRemux 1080p] Dub + 2xDVO + Sub (Rus + Eng) + Original Eng

 
Автор Сообщение

Richi Keeper ®

Пол:

Стаж: 1 год 6 месяцев

Сообщений: 57

Откуда: Томская область



Награды: Нет

Торрент-статистика

Создавать темы 11-Июн-2015 19:32

[Цитировать]

Домино / Domino- Страна: США, Франция, Великобритания
Жанр: боевик, триллер, драма, криминал
Год выпуска: 2005
Продолжительность: 2:07:25-Перевод:
  • Профессиональный (дублированный)
  • Профессиональный (двухголосый закадровый) | П.Гланц и И.Королёва
  • Профессиональный (двухголосый закадровый) | Tycoon
Cубтитры: русские, английские
Оригинальная аудиодорожка: английский-Режиссер: Тони Скотт / Tony Scott
В ролях: Кира Найтли, Микки Рурк, Эдгар Рамирез, Риз Аббаси, Делрой Линдо, Моник, Йен Зиринг, Брайан Остин Грин, Джо Нунез, Мэйси Грэй, Люси Лью, Кристофер Уокен, Мена Сувари
Описание: Дочь известного в 60-е годы актера Лоуренса Харви, Домино, устав от роскоши и скучной жизни, посещает занятия для «охотников за головами». Там она знакомится с двумя головорезами — Тэдом и Чоко, который без памяти влюбляется в Домино. Объединившись с ними, она становится самой известной женщиной, занимающейся тем, что разыскивает преступников за награду.-Тип релиза: BDRemux 1080p
Контейнер: MKV
Видео: VC-1 Video / 26320 kbps / 1080p / 24 fps / 16:9 / Advanced Profile 3
Аудио 1: DTS / 5.1 / 48 kHz / 755 kbps / 24-bit | Дубляж
Аудио 2: DTS-HD Master Audio / 5.1 / 48 kHz / 2125 kbps / 16-bit (DTS Core: 5.1 / 48 kHz / 1509 kbps / 16-bit) | П.Гланц и И.Королёва
Аудио 3: AC3 / 5.1 / 48 KHz / 448 kbps / 16-bit | Tycoon
Аудио 4: English: DTS-HD Master Audio / 5.1 / 48 kHz / 2125 kbps / 16-bit (DTS Core: 5.1 / 48 kHz / 1509 kbps / 16-bit)
Формат субтитров: softsub (SRT)
Главы: есть- -

MediaInfo

General
Unique ID                                : 182163169609049377399817715129339957078 (0x890B59AE02F689F3823E2CBC9B414F56)
Complete name                            : F:\Фильмы\Domino.2005.BDRemux.1080p.VC-1.mkv
Format                                   : Matroska
Format version                           : Version 2
File size                                : 28.3 GiB
Duration                                 : 2h 7mn
Overall bit rate mode                    : Variable
Overall bit rate                         : 31.8 Mbps
Encoded date                             : UTC 2011-10-15 22:53:24
Writing application                      : mkvmerge v5.0.1 ('Es ist Sommer') built on Oct  9 2011 11:55:43
Writing library                          : libebml v1.2.2 + libmatroska v1.3.0
Video
ID                                       : 1
Format                                   : VC-1
Format profile                           : AP@L3
Codec ID                                 : WVC1
Codec ID/Hint                            : Microsoft
Duration                                 : 2h 7mn
Bit rate                                 : 26.8 Mbps
Width                                    : 1 920 pixels
Height                                   : 1 080 pixels
Display aspect ratio                     : 16:9
Frame rate                               : 24.000 fps
Chroma subsampling                       : 4:2:0
Bit depth                                : 8 bits
Scan type                                : Progressive
Compression mode                         : Lossy
Bits/(Pixel*Frame)                       : 0.539
Stream size                              : 23.9 GiB (84%)
Title                                    : Domino (2005)
Language                                 : English
Audio #1
ID                                       : 2
Format                                   : DTS
Format/Info                              : Digital Theater Systems
Codec ID                                 : A_DTS
Duration                                 : 2h 7mn
Bit rate mode                            : Constant
Bit rate                                 : 755 Kbps
Channel(s)                               : 6 channels
Channel positions                        : Front: L C R, Side: L R, LFE
Sampling rate                            : 48.0 KHz
Bit depth                                : 24 bits
Compression mode                         : Lossy
Stream size                              : 688 MiB (2%)
Title                                    : DTS, 5.1, 755 kbps | Dub
Language                                 : Russian
Audio #2
ID                                       : 3
Format                                   : DTS
Format/Info                              : Digital Theater Systems
Format profile                           : MA / Core
Codec ID                                 : A_DTS
Duration                                 : 2h 7mn
Bit rate mode                            : Variable
Bit rate                                 : 1 561 Kbps / 1 510 Kbps
Channel(s)                               : 6 channels
Channel positions                        : Front: L C R, Side: L R, LFE
Sampling rate                            : 48.0 KHz
Bit depth                                : 16 bits
Compression mode                         : Lossless / Lossy
Title                                    : DTS-HD MA, 5.1 | П.Гланц и И.Королёва
Language                                 : Russian
Audio #3
ID                                       : 4
Format                                   : AC-3
Format/Info                              : Audio Coding 3
Mode extension                           : CM (complete main)
Codec ID                                 : A_AC3
Duration                                 : 2h 7mn
Bit rate mode                            : Constant
Bit rate                                 : 448 Kbps
Channel(s)                               : 6 channels
Channel positions                        : Front: L C R, Side: L R, LFE
Sampling rate                            : 48.0 KHz
Bit depth                                : 16 bits
Compression mode                         : Lossy
Stream size                              : 408 MiB (1%)
Title                                    : AC3, 5.1, 448 kbps | Tycoon
Language                                 : Russian
Audio #4
ID                                       : 5
Format                                   : DTS
Format/Info                              : Digital Theater Systems
Format profile                           : MA / Core
Codec ID                                 : A_DTS
Duration                                 : 2h 7mn
Bit rate mode                            : Variable
Bit rate                                 : 1 561 Kbps / 1 510 Kbps
Channel(s)                               : 6 channels
Channel positions                        : Front: L C R, Side: L R, LFE
Sampling rate                            : 48.0 KHz
Bit depth                                : 16 bits
Compression mode                         : Lossless / Lossy
Title                                    : DTS-HD MA, 5.1
Language                                 : English
Text #1
ID                                       : 6
Format                                   : UTF-8
Codec ID                                 : S_TEXT/UTF8
Codec ID/Info                            : UTF-8 Plain Text
Language                                 : Russian
Text #2
ID                                       : 7
Format                                   : UTF-8
Codec ID                                 : S_TEXT/UTF8
Codec ID/Info                            : UTF-8 Plain Text
Language                                 : English
Menu
00:00:00.000                             : en:1
00:09:31.333                             : en:2
00:19:49.625                             : en:3
00:31:00.458                             : en:4
00:42:35.250                             : en:5
00:53:53.750                             : en:6
01:02:09.583                             : en:7
01:12:23.792                             : en:8
01:22:22.750                             : en:9
01:35:43.292                             : en:10
01:46:39.000                             : en:11
01:56:37.958                             : en:12

Скриншоты

Этот BDRemux (vc-1 26320 kbps) vs BDRemux (vc-1 15224 kbps)







[Профиль] [ЛС]

Создавать темы 06-Авг-2015 22:17 (спустя 1 месяц 25 дней)

Топик был перенесен из форума Фильмы до 2014 года в форум Фильмы до 2012 года
sergej644
 
Кто просматривает тему:

Форум Тема Автор Размер
Разная литература Американские револьверы и пистолеты [Доминик Веннер] Garik014 70 MB
Фильмы 2009 года Белая мгла / Whiteout (Доминик Сена / Dominic Sena) [2009, США, Канада, Франция, Турция, боевик, триллер, криминал, BDRip] AVO (Гранкин) + Original Eng TorrentFilm 1.42 GB
R.G.TorrentFilm Video Воры / Ladrones (Джо Менендес / Joe Menendez) [2015, США, Доминикана, Комедия, WEB-DLRip] DVO (Parovoz Production) Один 777 744 MB
Зарубежные сериалы Доминион / Dominion [S01] (2014) WEB-DL 1080p | BaibaKo Белочка 15.34 GB
Зарубежные сериалы Доминион / Dominion [S02] (2015) WEB-DL 720p | LostFilm достали все 16.21 GB
Зарубежные сериалы Доминион / Dominion [S02] (2015) WEB-DLRip | BaibaKo достали все 7.05 GB
Фильмы 2010 года Закон моей страны / La loi de mon pays (Доминик Ладож / Dominique Ladoge) [2010, Франция, историческая драма, экранизация, DVB] Original (Fre) + Sub (Rus, Eng, Fre, Deu) TorrentFilm 2.31 GB
Фильмы 2011 года Знать бы, что я гений / If I Had Known I Was a Genius (Доминик Уиртшафтер / Dominique Wirtschafter) [2007, США, драма, комедия, DVDRip] Dub + MVO + Sub Rus + Original Eng TorrentFilm 2.02 GB
Показать сообщения:    

Текущее время: Сегодня 08:30

Часовой пояс: GMT



Вы не можете начинать темы
Вы не можете отвечать на сообщения
Вы не можете редактировать свои сообщения
Вы не можете удалять свои сообщения
Вы не можете голосовать в опросах
Вы не можете прикреплять файлы к сообщениям
Вы не можете скачивать файлы