Домик на дереве / Treehouse (2014) WEB-DL 720p | L2

 
Автор Сообщение

sergej644 ®

Пол:

Стаж: 4 года 11 месяцев

Сообщений: 6038

Откуда: Soviet Union



Награды: Нет

Торрент-статистика

Создавать темы 14-Фев-2015 00:03

[Цитировать]

Информация о фильме
Название: Домик на дереве
Оригинальное название: Treehouse
Год выхода: 2014
Жанр: ужасы, триллер, детектив
Режиссер: Майкл Г. Бартлетт
В ролях: Джонатан Майкл Траутмэнн, Дэна Мелани, Клинт Джеймс, Дэниэл Фредрик, Шеннон Кнопк, Калеб Кокс, Даррен Кеннеди, Чэнс Николс, Мэллори Малибу Во, Jake Gregory
О фильме: В небольшом городке начинают происходить похищения детей и подростков, останки обезображенных тел которых находят в лесу. Полиция вводит комендантский час, но тщетно, таинственного похитителя это не останавливает и он продолжает воплощать свои извращенные идеи в жизнь. Одной из жертв удается убежать и спрятаться в домике на дереве...

Выпущено: Великобритания, США / Aunt Max Entertainment
Продолжительность: 01:40:04
Озвучивание: Любительское (двухголосое) [den904 & DeadSno]
Файл
Формат: MKV
Качество: WEB-DL 720p
Видео: 3800 kb/s, 1280x538
Аудио: Russian: AC3, 192 kb/s (2 ch) / English: AC3, 384 kb/s (6 ch)

MI

Format : Matroska
Format version : Version 4 / Version 2
File size : 3.12 GiB
Duration : 1h 40mn
Overall bit rate : 4 465 Kbps
Encoded date : UTC 2015-02-10 00:56:10
Writing application : mkvmerge v6.1.0 ('Old Devil') built on Mar 4 2013 09:10:42
Writing library : libebml v1.3.0 + libmatroska v1.4.0
Video
ID : 1
Format : AVC
Format/Info : Advanced Video Codec
Format profile : Main@L3.1
Format settings, CABAC : No
Format settings, ReFrames : 2 frames
Codec ID : V_MPEG4/ISO/AVC
Duration : 1h 40mn
Bit rate : 3 800 Kbps
Width : 1 280 pixels
Height : 538 pixels
Display aspect ratio : 2.40:1
Frame rate : 23.976 fps
Color space : YUV
Chroma subsampling : 4:2:0
Bit depth : 8 bits
Scan type : Progressive
Bits/(Pixel*Frame) : 0.230
Stream size : 2.66 GiB (85%)
Language : English
Default : Yes
Forced : No
Color primaries : BT.709-5, BT.1361, IEC 61966-2-4, SMPTE RP177
Transfer characteristics : BT.709-5, BT.1361
Matrix coefficients : BT.709-5, BT.1361, IEC 61966-2-4 709, SMPTE RP177
Audio #1
ID : 2
Format : AC-3
Format/Info : Audio Coding 3
Mode extension : CM (complete main)
Format settings, Endianness : Big
Codec ID : A_AC3
Duration : 1h 40mn
Bit rate mode : Constant
Bit rate : 192 Kbps
Channel(s) : 2 channels
Channel positions : Front: L R
Sampling rate : 48.0 KHz
Bit depth : 16 bits
Compression mode : Lossy
Stream size : 137 MiB (4%)
Language : Russian
Default : Yes
Forced : No
Audio #2
ID : 3
Format : AC-3
Format/Info : Audio Coding 3
Mode extension : CM (complete main)
Format settings, Endianness : Big
Codec ID : A_AC3
Duration : 1h 40mn
Bit rate mode : Constant
Bit rate : 384 Kbps
Channel(s) : 6 channels
Channel positions : Front: L C R, Side: L R, LFE
Sampling rate : 48.0 KHz
Bit depth : 16 bits
Compression mode : Lossy
Stream size : 275 MiB (9%)
Language : English
Default : No
Forced : No
Menu
00:00:00.000 : en:Chapter 1
00:07:00.000 : en:Chapter 2
00:16:19.000 : en:Chapter 3
00:24:54.000 : en:Chapter 4
00:31:32.000 : en:Chapter 5
00:40:52.000 : en:Chapter 6
00:49:10.000 : en:Chapter 7
00:56:29.000 : en:Chapter 8
01:06:41.000 : en:Chapter 9
01:16:01.000 : en:Chapter 10
01:23:35.000 : en:Chapter 11
01:35:43.000 : en:Chapter 12
[Профиль] [ЛС]
Показать сообщения:    

Текущее время: Сегодня 02:14

Часовой пояс: GMT



Вы не можете начинать темы
Вы не можете отвечать на сообщения
Вы не можете редактировать свои сообщения
Вы не можете удалять свои сообщения
Вы не можете голосовать в опросах
Вы не можете прикреплять файлы к сообщениям
Вы не можете скачивать файлы