Домашняя вечеринка 2 / House Party 2 (Джордж Джексон / George Jackson, Даг МакГенри / Doug McHenry) [1991, США, комедия, мелодрама, музыка, WEB-DL 1080p] AVO (Юрий Живов) + Original Eng

 
Автор Сообщение

reversefile ®

Пол:

Стаж: 4 года 5 месяцев

Сообщений: 842

Откуда: ReverseFile.org



Награды: Нет

Торрент-статистика

Создавать темы 21-Июл-2014 18:12

[Цитировать]

Домашняя вечеринка 2 / House Party 2
Страна: США
Жанр: комедия, мелодрама, музыка
Год выпуска: 1991
Продолжительность: 01:34:21
Перевод: Авторский (одноголосый закадровый) Юрий Живов
Cубтитры: нет
Оригинальная аудиодорожка: английский
Режиссер: Джордж Джексон / George Jackson, Даг МакГенри / Doug McHenry
В ролях: Кристофер Рид, Кристофер Мартин, Мартин Лоуренс, Бау-Леггд Лу, Пол Энтони, Би-Файн, Тиша Кэмпбелл, Кэмрон, Иман, Куин Латифа...
Описание: Кид — паренек, поступивший в колледж. Плэй — его приятель, зациклившийся на записи собственных пластинок, но не имеющий для этого денег. В его руки попадает чековая книжка Кида, баксы быстренько тратятся, а Кида вызывает декан и сообщает: не будет оплачено обучение — придется покинуть колледж…
Доп. информация: Исходником звука послужила раздача от alenavova.
Сэмпл: http://multi-up.com/987167
Тип релиза: WEB-DL 1080p
Контейнер: MKV
Видео: 1916x1076 (16:9), 23.976 fps, AVC, ~5101 Kbps, 0.103 bits/pixel
Аудио 1: Russian, 48.0 KHz, AC3, 2 ch, 192 Kbps - Юрий Живов
Аудио 2: English, 48.0 KHz, AC3, 6 ch, 448 Kbps

MediaInfo

General
Unique ID : 205924727141479544732280246080749682459 (0x9AEBA8EA904022299049FECED9B7BF1B)
Complete name : C:\House Party 2.mkv
Format : Matroska
Format version : Version 4 / Version 2
File size : 3.86 GiB
Duration : 1h 34mn
Overall bit rate : 5 858 Kbps
Encoded date : UTC 2014-07-17 08:05:44
Writing application : mkvmerge v7.0.0 ('Where We Going') 64bit built on Jun 9 2014 15:16:27
Writing library : libebml v1.3.0 + libmatroska v1.4.1
DURATION : 01:34:20.960000000
NUMBER_OF_FRAMES : 176905
NUMBER_OF_BYTES : 317013760
_STATISTICS_WRITING_APP : mkvmerge v7.0.0 ('Where We Going') 64bit built on Jun 9 2014 15:16:27
_STATISTICS_WRITING_DATE_UTC : 2014-07-17 08:05:44
_STATISTICS_TAGS : BPS DURATION NUMBER_OF_FRAMES NUMBER_OF_BYTES
Video
ID : 1
Format : AVC
Format/Info : Advanced Video Codec
Format profile : High@L4.0
Format settings, CABAC : Yes
Format settings, ReFrames : 4 frames
Codec ID : V_MPEG4/ISO/AVC
Duration : 1h 34mn
Bit rate : 5 101 Kbps
Width : 1 916 pixels
Height : 1 076 pixels
Display aspect ratio : 16:9
Frame rate mode : Constant
Frame rate : 23.976 fps
Color space : YUV
Chroma subsampling : 4:2:0
Bit depth : 8 bits
Scan type : Progressive
Bits/(Pixel*Frame) : 0.103
Stream size : 3.36 GiB (87%)
Language : English
Default : Yes
Forced : No
Color primaries : BT.709
Transfer characteristics : BT.709
Matrix coefficients : BT.709
Audio #1
ID : 2
Format : AC-3
Format/Info : Audio Coding 3
Mode extension : CM (complete main)
Format settings, Endianness : Big
Codec ID : A_AC3
Duration : 1h 34mn
Bit rate mode : Constant
Bit rate : 192 Kbps
Channel(s) : 2 channels
Channel positions : Front: L R
Sampling rate : 48.0 KHz
Bit depth : 16 bits
Compression mode : Lossy
Stream size : 130 MiB (3%)
Title : Юрий Живов
Language : Russian
Default : Yes
Forced : No
Audio #2
ID : 3
Format : AC-3
Format/Info : Audio Coding 3
Mode extension : CM (complete main)
Format settings, Endianness : Big
Codec ID : A_AC3
Duration : 1h 34mn
Bit rate mode : Constant
Bit rate : 448 Kbps
Channel(s) : 6 channels
Channel positions : Front: L C R, Side: L R, LFE
Sampling rate : 48.0 KHz
Bit depth : 16 bits
Compression mode : Lossy
Stream size : 302 MiB (8%)
Language : English
Default : No
Forced : No
Menu
00:00:00.000 : en:Main Titles; College Dreams
00:05:41.000 : en:At Church
00:07:42.000 : en:An Offer
00:10:17.000 : en:Moving In
00:12:00.000 : en:Play Goes Solo/Male Bullsh*t
00:17:54.000 : en:"My Check!"
00:20:13.000 : en:Class/Job Hunt
00:23:53.000 : en:"I have a check."/Security
00:26:28.000 : en:Bad Check
00:30:23.000 : en:Ripped Off
00:34:03.000 : en:Breaking Up
00:36:34.000 : en:Extension/"The Invisible Man"
00:41:56.000 : en:Paying Debts/Hard Work
00:45:08.000 : en:Fundraising/Schoolwork
00:49:56.000 : en:The Rally
00:55:15.000 : en:Busted
00:57:14.000 : en:Spreading the Word
01:01:30.000 : en:The Jam Begins
01:04:57.000 : en:Let's Dance
01:07:59.000 : en:Ladies' Choice
01:09:48.000 : en:Jama on the Mic
01:11:17.000 : en:Kid 'N Play
01:14:31.000 : en:In Pursuit
01:22:37.000 : en:Farewells
01:28:11.000 : en:"Sorry."
01:30:19.000 : en:End Credits

Скриншоты

[Профиль] [ЛС]
Показать сообщения:    

Текущее время: Сегодня 16:51

Часовой пояс: GMT



Вы не можете начинать темы
Вы не можете отвечать на сообщения
Вы не можете редактировать свои сообщения
Вы не можете удалять свои сообщения
Вы не можете голосовать в опросах
Вы не можете прикреплять файлы к сообщениям
Вы не можете скачивать файлы