Домашний арест / House arrest (Сезон 1, Серия 1-12 из 12)(Пётр Буслов) [2018 , Комедия , WEB-DLRip-AVC 400p][DD5.1]

 
Author Message

Враг Нароода ®

Gender:

Longevity: 4 years 3 months

Posts: 277



: 2 ()

За внесенный вклад в развитие сайта (1) Mega Seeder 1 (1)
Торрент-статистика

Post 27-Aug-2018 09:17

[Quote]

--Домашний арест / House arrest Сезон 1, Серия 1-12 из 12-- --Год выпуска: 2018
Выпущено: Россия , , Comedy Club Production
Жанр: Комедия
Продолжительность: 01:10:00
Сезон:1
Серия: 1-12
Количество серий в сезоне: 12
Озвучка : -Русский --Релиз Без Рекламы - Полный Комплект-- --Режиссер:
Пётр Буслов--В ролях: Павел Деревянко, Александр Робак, Егор Клинаев, Юлия Сорокина, Анна Уколова, Тимофей Трибунцев, Марина Александрова (I), Сергей Бурунов, Илья Коврижных, Виктория Самилкина
-- Мэр небольшого города попался на взятке и в качестве меры пресечения ему назначен домашний арест по месту прописки. Коллизия в том, что, чтобы казаться скромнее, чиновник прописан не в своем особняке, а в коммунальной квартире, в которой когда-то родился и вырос. Так он попадает в коммунальный ад своей старой квартиры. Он больше не главный и сам в свою очередь оказывается во власти простых обитателей коммуналки.-- --Качество : WEB-DLRip-AVC 400p
Формат: MKV
Видео кодек: H264
Видео: 1939Кбит/сек,720х400(16.9),в 29.970кадр/сек,,AVC(Baseline@L3)(1Ref Frames)
Аудио Кодек:AC3
Аудио #1:AC3 , 384 Kbps, 48.0 KHz, 6 ch-Русский--

MediaInfo

Общее
Уникальный идентификатор : 251613268853490459637401631029560971652 (0xBD4AF3F088BBE0B62E709EBCFE759184)
Полное имя : C:\Nikolai.Baranov & PIRATIYA\Домашний Арест\House_arrest_2018_S01_Н264_DD5.1_N.B_WEBRip_400р_Rus\House_arrest_S01E01_Н264_DD5.1_N.B_WEBRip_400р_Rus.mkv
Формат : Matroska
Версия формата : Version 4 / Version 2
Размер файла : 1,10 Гбайт
Продолжительность : 1 ч. 7 м.
Режим общего битрейта : Переменный
Общий поток : 2326 Кбит/сек
Название фильма : House arrest S01E01 @ Nikolai.Baranov & PIRATIYA
Дата кодирования : UTC 2018-08-24 15:03:59
Программа кодирования : mkvmerge v25.0.0 ('Prog Noir') 64-bit
Библиотека кодирования : libebml v1.3.6 + libmatroska v1.4.9
Видео
Идентификатор : 1
Формат : AVC
Формат/Информация : Advanced Video Codec
Профиль формата : Baseline@L3
Настройки формата : 1 Ref Frames
Параметр CABAC формата : Нет
Параметр RefFrames формата : 1 кадр
Параметр GOP формата : M=1, N=12
Идентификатор кодека : V_MPEG4/ISO/AVC
Продолжительность : 1 ч. 7 м.
Вид битрейта : Переменный
Битрейт : 1939 Кбит/сек
Максимальный битрейт : 2400 Кбит/сек
Ширина : 720 пикселей
Высота : 400 пикселей
Соотношение сторон : 16:9
Режим частоты кадров : Постоянный
Частота кадров : 29,970 (29970/1000) кадров/сек
Частота кадров в оригинале : 24,000 кадра/сек
Цветовое пространство : YUV
Субдискретизация насыщенности : 4:2:0
Битовая глубина : 8 бит
Тип развёртки : Прогрессивная
Бит/(Пиксели*Кадры) : 0.225
Размер потока : 938 Мбайт (83%)
Заголовок : House_arrest_S01E01_Н264_DD5.1_N.B_WEBRip_400р_Rus
Язык : Russian
Default : Да
Forced : Нет
Аудио
Идентификатор : 2
Формат : AC-3
Формат/Информация : Audio Coding 3
Идентификатор кодека : A_AC3
Продолжительность : 1 ч. 7 м.
Вид битрейта : Постоянный
Битрейт : 384 Кбит/сек
Каналы : 6 каналов
Расположение каналов : Front: L C R, Side: L R, LFE
Частота : 48,0 КГц
Частота кадров : 31,250 кадров/сек (1536 SPF)
Битовая глубина : 16 бит
Метод сжатия : С потерями
Размер потока : 186 Мбайт (17%)
Заголовок : Russian @DD5.1 AC3, 384 Kbps, 48.0 KHz, 6 ch
Язык : Russian
ServiceKind/String : Complete Main
Default : Да
Forced : Нет
Меню
00:00:00.000 : en:Глава 01 / en:Глава 01
--

Скриншоты

-- --

Как закачать отдельный файл

1. Открыть торрент
2. Снять галки с тех файлов торрента, которые мы не хотим закачивать. Оставляем только на нужных нам файлах (файле).
3. Нажать О.К.
В клиенте utorrent
Инструкция
1) Открыть торрент

2) Снять галки с тех файлов торрента, которые мы не хотим закачивать:
* либо вручную, снимая с каждого файла галку( скрин №1)
* либо, нажав кнопку "Снять метки (Select None)", сняв сразу со всех файлов(скрин №2)
№1

№2

Оставляем только на нужных нам файлах (файле).

3)Нажать О.К
-- -- --Внимание!!! 25.10. 2018. РАЗДАЧА ОБНОВЛЕНА. ДОБАВЛЕНА 12-СЕРИЯ. Финал Сезона. ОБНОВИТЕ ТОРЕНТ ФАЙЛ. ПРИЯТНОГО ПРОСМОТРА . Поблагодарить:
ЯД: 410017546713876
--Релиз от: Nikolai.Baranov & PIRATIYA -- -- -- --Время раздачи: 24/7--
[Profile] [PM]
Display posts from previous:    

The time now is: Today 11:22

All times are GMT



You cannot post new topics in this forum
You cannot reply to topics in this forum
You cannot edit your posts in this forum
You cannot delete your posts in this forum
You cannot vote in polls in this forum
You cannot attach files in this forum
You cannot download files in this forum