Долой сантименты / Bas les coeurs (Робен Дави / Robin Davis) [2009, Франция, Историческая драма, экранизация, DVB] VO + Sub Rus + Original Fre

 
Автор Сообщение

TorrentFilm ®

Пол:

Стаж: 2 года

Сообщений: 7741



Награды: Нет

Торрент-статистика

Создавать темы 28-Дек-2014 00:30

[Цитировать]

Долой сантименты / Bas les coeurs
Страна: Франция
Жанр: Историческая драма, экранизация
Год выпуска: 2009
Продолжительность: 01:25:40
Перевод: Одноголосый закадровый
Cубтитры: русские
Оригинальная аудиодорожка: французский
Режиссер: Робен Дави / Robin Davis
В ролях: Юрбен Канселье / Urbain Cancelier (Barbier), Жереми Дюваль / Jérémie Duvall (Jean Barbier), Попек / Popeck (Toussaint), Брюно Лоше / Bruno Lochet (Merlin), Хлое Стефани / Chloé Stefani (Louise Barbier), Жан-Ноэль Бруте / Jean-Noël Brouté (Monsieur Pion), Вероник Буланжер / Véronique Boulanger (Madame Arnal)
Описание: По одноименному роману Жоржа Дарьена / Georges Darien (1889).
В 1870 году Франция потерпела поражение в войне с Пруссией. 12-летний Жан наблюдает, как меняется поведение бывших стойких патриотов, как они смиряются с судьбой и начинают сотрудничать с оккупантами. Лишь сосед Мерлен не изменил своим принципам…
Доп. информация: Фильм взят отсюда http://torrentfilm.net/forum/viewtopic.php?t=4874419
Сэмпл: http://multi-up.com/1020572
Качество видео: DVB
Формат видео: MKV
Видео: MPEG Video at 3786 Кбит/сек : 704 x 576 (1.778) at 25.000 fps
Аудио 1: MPEG Audio at 192 Кбит/сек : 2 канала, 48,0 КГц Language : ru
Аудио 2: MPEG Audio at 192 Кбит/сек : 2 канала, 48,0 КГц Language : fr
Формат субтитров: hardsub (неотключаемые)
Доп. информация о субтитрах: Русские (Е.Маньен, Éclair Group)

MediaInfo

Общее
Уникальный идентификатор : 245803409219216237910992776243627562786 (0xB8EC03BE7305D1558AD0E2107E761722)
Полное имя : F:\С моей озвучкой\Долой сантименты.mkv
Формат : Matroska
Версия формата : Version 4 / Version 2
Размер файла : 2,55 Гбайт
Продолжительность : 1 ч. 25 м.
Режим общего битрейта : Переменный
Общий поток : 4255 Кбит/сек
Дата кодирования : UTC 2014-12-14 20:07:10
Программа кодирования : mkvmerge v6.1.0 ('Old Devil') built on Mar 4 2013 09:10:42
Библиотека кодирования : libebml v1.3.0 + libmatroska v1.4.0
Видео
Идентификатор : 1
Формат : MPEG Video
Версия формата : Version 2
Профиль формата : Main@Main
Параметр BVOP формата : Нет
Параметр матрицы формата : Выборочная
Format_Settings_PictureStructure : Frame
Идентификатор кодека : V_MPEG2
Идентификатор кодека/Информация : MPEG 1 or 2 Video
Продолжительность : 1 ч. 25 м.
Вид битрейта : Переменный
Битрейт : 3786 Кбит/сек
Максимальный битрейт : 6856 Кбит/сек
Ширина : 704 пикселя
Высота : 576 пикселей
Соотношение сторон : 16:9
Режим частоты кадров : Постоянный
Частота кадров : 25,000 кадров/сек
Стандарт вещания : PAL
Цветовое пространство : YUV
Субдискретизация насыщенности : 4:2:0
Битовая глубина : 8 бит
Тип развёртки : Чересстрочная
Порядок развёртки : Верхнее поле первое
Метод сжатия : С потерями
Бит/(Пиксели*Кадры) : 0.373
Временной код первого кадра : 00:00:00:00
Оригинал временного кода : Group of pictures header
Размер потока : 2,27 Гбайт (89%)
Default : Да
Forced : Нет
Аудио #1
Идентификатор : 2
Формат : MPEG Audio
Версия формата : Version 1
Профиль формата : Layer 3
Режим : Joint stereo
Расширение режима : MS Stereo
Идентификатор кодека : A_MPEG/L3
Идентификатор кодека/Подсказка : MP3
Продолжительность : 1 ч. 25 м.
Вид битрейта : Постоянный
Битрейт : 192 Кбит/сек
Каналы : 2 канала
Частота : 48,0 КГц
Метод сжатия : С потерями
Размер потока : 118 Мбайт (5%)
Библиотека кодирования : LAME3.96
Язык : Russian
Default : Да
Forced : Нет
Аудио #2
Идентификатор : 3
Формат : MPEG Audio
Версия формата : Version 1
Профиль формата : Layer 3
Режим : Joint stereo
Расширение режима : MS Stereo
Идентификатор кодека : A_MPEG/L3
Идентификатор кодека/Подсказка : MP3
Продолжительность : 1 ч. 25 м.
Вид битрейта : Постоянный
Битрейт : 192 Кбит/сек
Каналы : 2 канала
Частота : 48,0 КГц
Метод сжатия : С потерями
Размер потока : 118 Мбайт (5%)
Язык : French
Default : Нет
Forced : Нет

Скриншоты

[Профиль] [ЛС]

Создавать темы 06-Авг-2015 22:53 (спустя 7 месяцев 9 дней)

Топик был перенесен из форума Фильмы до 2014 года в форум Фильмы до 2012 года
sergej644
 

Создавать темы 12-Июн-2016 08:48 (спустя 1 год 5 месяцев)

Топик был перенесен из форума Фильмы 2011 года в форум Фильмы 2009 года
Russian Mafia
 
Показать сообщения:    

Текущее время: Сегодня 08:29

Часовой пояс: GMT



Вы не можете начинать темы
Вы не можете отвечать на сообщения
Вы не можете редактировать свои сообщения
Вы не можете удалять свои сообщения
Вы не можете голосовать в опросах
Вы не можете прикреплять файлы к сообщениям
Вы не можете скачивать файлы