Долой сантименты / Bas les coeurs (Робен Дави / Robin Davis) [2009, Франция, историческая драма, экранизация, DVB] Original (Fre) + Sub (rus)

 
Автор Сообщение

TorrentFilm ®

Пол:

Стаж: 2 года

Сообщений: 7741



Награды: Нет

Торрент-статистика

Создавать темы 20-Дек-2014 02:00

[Цитировать]

Долой сантименты
Bas les coeurs- Страна: Франция
Жанр: историческая драма, экранизация
Год выпуска: 2009
Продолжительность: 01:25:40
Перевод: Субтитры (перевод Е.Маньен, Éclair Group)
Cубтитры: русские
Оригинальная аудиодорожка: французский
Режиссер: Робен Дави / Robin DavisВ ролях: Юрбен Канселье / Urbain Cancelier (Barbier), Жереми Дюваль / Jérémie Duvall (Jean Barbier), Попек / Popeck (Toussaint), Брюно Лоше / Bruno Lochet (Merlin), Хлое Стефани / Chloé Stefani (Louise Barbier), Жан-Ноэль Бруте / Jean-Noël Brouté (Monsieur Pion), Вероник Буланжер / Véronique Boulanger (Madame Arnal)
Описание: По одноименному роману Жоржа Дарьена / Georges Darien (1889).
В 1870 году Франция потерпела поражение в войне с Пруссией. 12-летний Жан наблюдает, как меняется поведение бывших стойких патриотов, как они смиряются с судьбой и начинают сотрудничать с оккупантами. Лишь сосед Мерлен не изменил своим принципам…
Доп. информация: TV5MONDE DVB-S

Качество видео: DVB
Формат видео: MKV
Видео: MPEG Video 2, 704x576@1024x576 (16:9), 25 fps, ~3790 kbps avg, 0.374 bit/pixel
Аудио: Французский (MPEG Audio 2, 2 ch, 48 kHz, ~192.00 kbps avg)
Формат субтитров: hardsub (неотключаемые)

MediaInfo

ОбщееУникальный идентификатор : 255093044281890532505854194088243119690 (0xBFE9221D3EA6D3089EBBD96899BC464A)Полное имя : E:\My Torrents 2\[apreder]Bas_les_coeurs(2009)DVB.mkvФормат : MatroskaВерсия формата : Version 2Размер файла : 2,43 ГбайтПродолжительность : 1 ч. 25 м.Режим общего битрейта : ПеременныйОбщий поток : 4063 Кбит/секДата кодирования : UTC 2014-11-22 12:39:01Программа кодирования : mkvmerge v7.3.0 ('Nouages') 64bit built on Oct 22 2014 18:53:34Библиотека кодирования : libebml v1.3.0 + libmatroska v1.4.1
ВидеоИдентификатор : 1Формат : MPEG VideoВерсия формата : Version 2Профиль формата : Main@MainПараметр BVOP формата : НетПараметр матрицы формата : ВыборочнаяFormat_Settings_PictureStructure : FrameИдентификатор кодека : V_MPEG2Идентификатор кодека/Информация : MPEG 1 or 2 VideoПродолжительность : 1 ч. 25 м.Вид битрейта : ПеременныйБитрейт : 3790 Кбит/секМаксимальный битрейт : 6856 Кбит/секШирина : 704 пикселяВысота : 576 пикселейСоотношение сторон : 16:9Режим частоты кадров : ПостоянныйЧастота кадров : 25,000 кадров/секСтандарт вещания : PALЦветовое пространство : YUVСубдискретизация насыщенности : 4:2:0Битовая глубина : 8 битТип развёртки : ЧересстрочнаяПорядок развёртки : Верхнее поле первоеМетод сжатия : С потерямиБит/(Пиксели*Кадры) : 0.374Временной код первого кадра : 00:00:00:00Оригинал временного кода : Group of pictures headerРазмер потока : 2,27 Гбайт (93%)Default : ДаForced : Нет
АудиоИдентификатор : 2Формат : MPEG AudioВерсия формата : Version 1Профиль формата : Layer 2Идентификатор кодека : A_MPEG/L2Идентификатор кодека/Подсказка : MP2Продолжительность : 1 ч. 25 м.Вид битрейта : ПостоянныйБитрейт : 192 Кбит/секКаналы : 2 каналаЧастота : 48,0 КГцМетод сжатия : С потерямиРазмер потока : 118 Мбайт (5%)Язык : FrenchDefault : ДаForced : Нет

Скриншот c названием фильма

Скриншоты


Резервные скриншоты


-[1'929]
[Профиль] [ЛС]

Создавать темы 06-Авг-2015 22:54 (спустя 7 месяцев 17 дней)

Топик был перенесен из форума Фильмы до 2014 года в форум Фильмы до 2012 года
sergej644
 

Создавать темы 12-Июн-2016 08:48 (спустя 1 год 5 месяцев)

Топик был перенесен из форума Фильмы 2011 года в форум Фильмы 2009 года
Russian Mafia
 
Показать сообщения:    

Текущее время: Сегодня 11:55

Часовой пояс: GMT



Вы не можете начинать темы
Вы не можете отвечать на сообщения
Вы не можете редактировать свои сообщения
Вы не можете удалять свои сообщения
Вы не можете голосовать в опросах
Вы не можете прикреплять файлы к сообщениям
Вы не можете скачивать файлы