Долина роз (Дмитрий Черкасов) [2011, Россия, Латвия, драма, DVD9] R5 Original Rus

 
Автор Сообщение

TorrentFilm ®

Пол:

Стаж: 2 года

Сообщений: 7741



Награды: Нет

Торрент-статистика

Создавать темы 01-Янв-2016 00:20

[Цитировать]

-Долина роз-«Как же быстро ты живешь...» -Страна: Россия, Латвия
Студия: Rigas Filmu Studija
Жанр: драма
Год выпуска: 2011
Дата выхода DVD: 21 ноября 2013, «Cinema Prestige»
Продолжительность: 01:59:03
Перевод: Оригинал [Лицензия]
Cубтитры: нет
Оригинальная аудиодорожка: русский-Режиссер: Дмитрий Черкасов-В ролях: Анатолий Белый, Юлия Снигирь, Виталий Хаев, Оксана Фандера, Александр Горелов, Артем Григорьев...-Описание: История человека, начавшего новую жизнь на берегу рыбацкого поселка. Жизнь с рыбаками. Жизнь, где каждый занят делом и не задает лишних вопросов. Таким людям рыбацкая таверна «Долина роз» приносит счастье. Но потом, там появляется женщина. И все меняется…-Бонусы: Рассказывает Дмитрий Черкасов, режиссер фильма, Долина роз за кадром, Трейлер, фотогалерея, Муз. фрагменты- -Качество: DVD9 R5
Формат: DVD-Video
Видео кодек: MPEG2
Аудио кодек: AC3
Видео: PAL 16:9 (720x576(0.674)) MPEG Video, 25,000 кадр/сек, 6987 Кбит/сек
Аудио: Russian (Dolby AC3, 6 ch) 384 Кбит/сек, 48,0 КГц--

DVDInfo

Title: Dolina.roz.2011.DVD9
Size: 7.40 Gb ( 7 762 230,00 KBytes ) - DVD-9
Enabled regions: 1, 2, 3, 4, 5, 6, 7, 8
VTS_01 :
Play Length: 00:00:10
Video: PAL 16:9 (720x576) VBR, Auto Letterboxed
VTS_02 :
Play Length: 00:00:07
Video: PAL 16:9 (720x576) VBR, Auto Letterboxed
Audio:
English (Dolby AC3, 6 ch)
VTS_03 :
Play Length: 00:17:34
Video: PAL 4:3 (720x576) VBR
Audio:
Russian (Dolby AC3, 2 ch)
VTS_04 :
Play Length: 00:02:04
Video: PAL 4:3 (720x576) VBR
Audio:
Russian (Dolby AC3, 2 ch)
VTS_05 :
Play Length: 00:02:43
Video: PAL 4:3 (720x576) VBR
Audio:
Russian (Dolby AC3, 2 ch)
VTS_06 :
Play Length: 00:02:50
Video: PAL 4:3 (720x576) VBR
Audio:
Russian (Dolby AC3, 2 ch)
VTS_07 :
Play Length: 01:59:03
Video: PAL 16:9 (720x576) VBR, Auto Pan&Scan, Auto Letterboxed
Audio:
Russian (Dolby AC3, 6 ch)
* Menus Information *
VIDEO_TS Menu
Video:
PAL 16:9 (720x576) VBR
Auto Pan&Scan, Auto Letterboxed
English Language Unit :
Title Menu
VTS_01 Menu
Video:
PAL 16:9 (720x576) VBR
Auto Letterboxed
Audio:
Not specified (Dolby AC3, 2 ch)
English Language Unit :
Root Menu
VTS_02 Menu
Video:
PAL 4:3 (720x576) VBR
English Language Unit :
Root Menu
VTS_03 Menu
Video:
PAL 4:3 (720x576) VBR
English Language Unit :
Root Menu
VTS_04 Menu
Video:
PAL 4:3 (720x576) VBR
English Language Unit :
Root Menu
VTS_05 Menu
Video:
PAL 4:3 (720x576) VBR
English Language Unit :
Root Menu
VTS_06 Menu
Video:
PAL 4:3 (720x576) VBR
English Language Unit :
Root Menu
VTS_07 Menu
Video:
PAL 4:3 (720x576) VBR
English Language Unit :
Root Menu

MediaInfo

Общее
Полное имя : K:\Новинки 2013\Dolina.roz.2011.DVD9\VIDEO_TS\VTS_07_1.VOB
Формат : MPEG-PS
Размер файла : 1024 Мбайт
Продолжительность : 19 м.
Режим общего битрейта : Переменный
Общий поток : 7521 Кбит/сек
Видео
Идентификатор : 224 (0xE0)
Формат : MPEG Video
Версия формата : Version 2
Профиль формата : Main@Main
Параметр BVOP формата : Да
Параметр матрицы формата : По умолчанию
Параметр GOP формата : M=3, N=12
Продолжительность : 19 м.
Вид битрейта : Переменный
Битрейт : 6987 Кбит/сек
Максимальный битрейт : 9000 Кбит/сек
Ширина : 720 пикселей
Высота : 576 пикселей
Соотношение сторон : 16:9
Частота кадров : 25,000 кадров/сек
Стандарт вещания : PAL
Цветовое пространство : YUV
Субдискретизация насыщенности : 4:2:0
Битовая глубина : 8 бит
Тип развёртки : Прогрессивная
Метод сжатия : С потерями
Бит/(Пиксели*Кадры) : 0.674
Временной код первого кадра : 00:00:00:00
Оригинал временного кода : Group of pictures header
Размер потока : 951 Мбайт (93%)
Аудио
Идентификатор : 189 (0xBD)-128 (0x80)
Формат : AC-3
Формат/Информация : Audio Coding 3
Расширение режима : CM (complete main)
Параметр Endianness формата : Big
Режим смешивания : DVD-Video
Продолжительность : 19 м.
Вид битрейта : Постоянный
Битрейт : 384 Кбит/сек
Каналы : 6 каналов
Расположение каналов : Front: L C R, Side: L R, LFE
Частота : 48,0 КГц
Битовая глубина : 16 бит
Метод сжатия : С потерями
Задержка видео : -80 мс.
Размер потока : 52,3 Мбайт (5%)

Скриншоты меню

Скриншоты фильма

Скриншоты доп. материалов


-
-Раздача от группы:
[Профиль] [ЛС]
Кто просматривает тему:

Форум Тема Автор Размер
S.T.A.L.K.E.R. S.T.A.L.K.E.R.: Call of Pripyat - Долина Шорохов (2013-2016) RePack by SeregA-Lus (обновление 01.02.2016) Garik014 3.04 GB
3D Мультфильмы Букашки. Приключение в Долине муравьев в 3Д / Minuscule - La vallée des fourmis perdues / Minuscule. The Valley Of The Lost Ants 3D (Хелен Жиро, Томас Забо / Hélène Giraud, Thomas Szabo) ... BOSS 17.35 GB
Фильмы 2016 года В долине насилия / In a Valley of Violence (2016) WEB-DLRip | L Russian Mafia 1.46 GB
Фильмы (HD Rips | 720p, 1080p) В долине Эла / In the Valley of Elah (2007) BDRip [1080p] sergej644 11.82 GB
Любовные романы и эротика Долина кукол (Сьюзан Жаклин) [2014, Современные любовные романы, аудиокнига, MP3, 96 kbps, Иванова Маргарита] Magnat 1.1 GB
Фильмы 2015 года Долина любви / Valley of Love (2015) HDRip | L достали все 1.37 GB
Путешествия и приключения Долина молчаливых призраков (Джеймс Оливер Кервуд) [2014, Приключения, аудиокнига, MP3, 96 kbps, Александр Котов] Magnat 271 MB
Фильмы (HD Rips | 720p, 1080p) Долина проклятий / Damnation Alley (1977) BDRip 1080p от Silverok | A Russian Mafia 9.06 GB
Показать сообщения:    

Текущее время: Сегодня 12:48

Часовой пояс: GMT



Вы не можете начинать темы
Вы не можете отвечать на сообщения
Вы не можете редактировать свои сообщения
Вы не можете удалять свои сообщения
Вы не можете голосовать в опросах
Вы не можете прикреплять файлы к сообщениям
Вы не можете скачивать файлы