Долгое эхо вьетнамской войны (Денис Аргутинский) [2014, Документальный, война, история, HDTVRip 720p]

 
Автор Сообщение

TorrentFilm ®

Пол:

Стаж: 2 года

Сообщений: 7741



Награды: Нет

Торрент-статистика

Создавать темы 24-Апр-2015 00:05

[Цитировать]

Долгое эхо вьетнамской войны
Дата/Год выпуска: 2014
Страна: Россия, ВГТРК
Жанр: Документальный, война, история
Продолжительность: 00:51:33
Перевод: Не требуется
Режиссер: Денис Аргутинский
Телеканал: Россия HD
Описание: 40 лет назад - 30 апреля 1975 года - закончилась война во Вьетнаме. В этот день войска Северного (коммунистического) Вьетнама с боями взяли Сайгон, капиталистическую столицу южного Вьетнама. Это была не только одна из самых жестоких и продолжительных войн XX века. По сути, именно во Вьетнаме произошло одно из первых и, безусловно, самое мощное военное противостояние двух противоборствующих систем - социализма и капитализма. В этой войне Северный Вьетнам поддерживали Северная Корея, Китай и прежде всего - СССР. На стороне Южного Вьетнама выступали США.
Этот фильм о том, что сегодня осталось от той войны. Как спустя сорок лет живут ее участники – ветераны из России, Вьетнама и США? Что связывает их сегодня, кроме общих военных воспоминаний? История любви советского солдата и юной вьетнамской военной переводчицы. Американский солдат, вернувшийся во Вьетнам через несколько десятилетий и оставшийся здесь навсегда, чтобы очищать эту землю от бомб и снарядов. Вьетнамский мальчик, чудом выживший в резне в его родной деревне.
Эксклюзивные истории, малоизвестные факты и попытка исторического осмысления итогов войны во Вьетнаме.
Доп. информация: Авторство релиза - alf62

качество: HDTVRip 720p
формат: MKV
Видео: MPEG-4 AVC, ~ 3445 Кбит/с, 1280x720
Аудио: AC3, 2 ch, 192 Кбит/с

MediaInfo

Долгое.эхо.вьетнамской.войны.2014.720p.hdtv.alf62.mkvФормат : MatroskaВерсия формата : Version 2Размер файла : 1,30 ГбайтПродолжительность : 51 м.Общий поток : 3618 Кбит/секПрограмма кодирования : libmatroska 1.4.0Библиотека кодирования : SolveigMM Matroska Muxer Version 1.0.1211.11
ВидеоИдентификатор : 1Формат : AVCФормат/Информация : Advanced Video CodecПрофиль формата : High@L4.0Параметр CABAC формата : ДаПараметр ReFrames формата : 8 кадровИдентификатор кодека : V_MPEG4/ISO/AVCПродолжительность : 51 м.Битрейт : 3445 Кбит/секШирина : 1280 пикселейВысота : 720 пикселейСоотношение сторон : 16:9Режим частоты кадров : ПостоянныйЧастота кадров : 25,000 кадров/секЦветовое пространство : YUVСубдискретизация насыщенности : 4:2:0Битовая глубина : 8 битТип развёртки : ПрогрессивнаяБит/(Пиксели*Кадры) : 0.150Размер потока : 1,21 Гбайт (93%)Библиотека кодирования : x264 core 130 r2273 b3065e6Настройки программы : cabac=1 / ref=8 / deblock=1:-1:-1 / analyse=0x3:0x133 / me=umh / subme=7 / psy=1 / psy_rd=1.00:0.10 / mixed_ref=1 / me_range=16 / chroma_me=1 / trellis=2 / 8x8dct=1 / cqm=0 / deadzone=21,11 / fast_pskip=0 / chroma_qp_offset=-3 / threads=6 / lookahead_threads=1 / sliced_threads=0 / nr=0 / decimate=1 / interlaced=0 / bluray_compat=0 / constrained_intra=0 / bframes=3 / b_pyramid=2 / b_adapt=2 / b_bias=0 / direct=3 / weightb=1 / open_gop=0 / weightp=2 / keyint=250 / keyint_min=25 / scenecut=40 / intra_refresh=0 / rc_lookahead=50 / rc=2pass / mbtree=1 / bitrate=3445 / ratetol=1.0 / qcomp=0.60 / qpmin=0 / qpmax=69 / qpstep=4 / cplxblur=20.0 / qblur=0.5 / ip_ratio=1.40 / aq=1:1.00Язык : EnglishDefault : НетForced : Нет
АудиоИдентификатор : 2Формат : AC-3Формат/Информация : Audio Coding 3Расширение режима : CM (complete main)Параметр Endianness формата : BigИдентификатор кодека : A_AC3Продолжительность : 51 м.Вид битрейта : ПостоянныйБитрейт : 192 Кбит/секКаналы : 2 каналаРасположение каналов : Front: L RЧастота : 48,0 КГцБитовая глубина : 16 битМетод сжатия : С потерямиРазмер потока : 70,8 Мбайт (5%)Язык : EnglishDefault : НетForced : Нет
[Профиль] [ЛС]
Кто просматривает тему:

Форум Тема Автор Размер
Фильмы (HD Rips | 720p, 1080p) Долгое падение / A Long Way Down (2014) BDRip 1080p sergej644 9.89 GB
Фильмы (HD Rips | 720p, 1080p) Долгое падение / A Long Way Down (2014) BDRip 720p | Лицензия sergej644 2.13 GB
Фильмы 2014 года Долгое падение / A Long Way Down (Паскаль Шомель / Pascal Chaumeil) [2014, Великобритания, Германия, драма, комедия, BDRip-AVC] Dub reversefile 745 MB
Фильмы 2014 года Долгое падение / A Long Way Down (Паскаль Шомель / Pascal Chaumeil) [2014, Великобритания, Германия, Драма, комедия, BDRip-AVC] Dub + Original + Sub (Rus) reversefile 1.45 GB
Фильмы 2014 года Долгое падение / A Long Way Down (Паскаль Шомель / Pascal Chaumeil) [2014, Великобритания, Германия, Драма, комедия, BDRip-AVC] Dub + Sub Rus + Original Eng reversefile 2.18 GB
Фильмы 2014 года Долгое падение / A Long Way Down (Паскаль Шомель / Pascal Chaumeil) [2014, Великобритания, Германия, Драма, комедия, BDRip] Dub reversefile 744 MB
Фильмы (HD Rips | 720p, 1080p) Долгое падение / A Long Way Down (Паскаль Шомель / Pascal Chaumeil) [2014, Великобритания, Германия, драма, комедия, Blu-ray disc] Dub + Sub Rus + Original Eng bot 18.49 GB
Фильмы 2014 года Долгое падение / A Long Way Down (Паскаль Шомель / Pascal Chaumeil) [2014, Великобритания, Германия, Драма, комедия, HDRip] Dub bot 1.46 GB
Показать сообщения:    

Текущее время: Сегодня 18:58

Часовой пояс: GMT



Вы не можете начинать темы
Вы не можете отвечать на сообщения
Вы не можете редактировать свои сообщения
Вы не можете удалять свои сообщения
Вы не можете голосовать в опросах
Вы не можете прикреплять файлы к сообщениям
Вы не можете скачивать файлы