Долгое прощание (Сергей Урсуляк) [2004, Россия, драма, мелодрама, экранизация, DVD9]

 
Автор Сообщение

TorrentFilm ®

Пол:

Стаж: 2 года

Сообщений: 7741



Награды: Нет

Торрент-статистика

Создавать темы 01-Янв-2016 00:12

[Цитировать]

Долгое прощание
Страна: Россия
Студия: Филм-про
Жанр: драма, мелодрама, экранизация
Год выпуска: 2004
Продолжительность: 01:49:00
Перевод: Не требуется
Cубтитры: нет
Режиссер: Сергей Урсуляк
В ролях: Андрей Щенников, Полина Агуреева, Борис Каморзин, Татьяна Лебедькова, Константин Желдин, Генриетта Егорова, Евгений Киндинов, Валентина Шарыкина, Людмила Аринина, Роман Стабуров, Петр Меркурьев, Валерий Трошин.
Описание: Драма. Экранизация одноименной повести Юрия Трифонова
Популярная модная актриса театра Ляля — исполнительница всех главных ролей в спектаклях по пьесам популярного драматурга Смолянова. Ляля — его любовница, хотя она искренне любит своего мужа Гришу Реброва, талантливого литератора, но совершенно невезучего человека. Кто первым найдет в себе силы разорвать этот треугольник?
Меню: анимированное / озвученное
Сэмпл: скачать
Тип релиза: DVD9
Контейнер: DVD-Video
Видео: MPEG2 Video PAL 720x576 VBR (4:3) 25fps 6567Kbps
Аудио: Dolby AC3 48000Hz 6ch 448kbps

MediaInfo

Format : MPEG-PS
File size : 60.7 MiB
Duration : 1mn 17s
Overall bit rate mode : Variable
Overall bit rate : 6 567 Kbps
Video
ID : 224 (0xE0)
Format : MPEG Video
Format version : Version 2
Format profile : Main@Main
Format settings, BVOP : Yes
Format settings, Matrix : Custom
Format settings, GOP : Variable
Duration : 1mn 17s
Bit rate mode : Variable
Bit rate : 5 988 Kbps
Maximum bit rate : 8 000 Kbps
Width : 720 pixels
Height : 576 pixels
Display aspect ratio : 4:3
Frame rate : 25.000 fps
Standard : PAL
Color space : YUV
Chroma subsampling : 4:2:0
Bit depth : 8 bits
Scan type : Interlaced
Scan order : Top Field First
Compression mode : Lossy
Bits/(Pixel*Frame) : 0.578
Time code of first frame : 00:50:08:22
Time code source : Group of pictures header
Stream size : 55.3 MiB (91%)
Audio
ID : 189 (0xBD)-128 (0x80)
Format : AC-3
Format/Info : Audio Coding 3
Mode extension : CM (complete main)
Format settings, Endianness : Big
Muxing mode : DVD-Video
Duration : 1mn 17s
Bit rate mode : Constant
Bit rate : 448 Kbps
Channel(s) : 6 channels
Channel positions : Front: L C R, Side: L R, LFE
Sampling rate : 48.0 KHz
Bit depth : 16 bits
Compression mode : Lossy
Delay relative to video : -288ms
Stream size : 4.14 MiB (7%)

DVDInfo

Title: Долгое прощание (Урсуляк, 2004) (DVD9)
Size: 5.53 Gb ( 5 793 778,00 KBytes ) - DVD-9
Enabled regions: 1, 2, 3, 4, 5, 6
VTS_01 :
Play Length: 00:00:05
Video: PAL 4:3 (720x576) VBR
VTS_02 :
Play Length: 00:00:11
Video: PAL 4:3 (720x576) VBR
Audio:
Not specified, AC3, 3/2 (L,C,R,SL,SR)+LFE ch, 448 kbps, Delay 0 mSec
VTS_03 :
Play Length: 00:02:13
Video: PAL 4:3 (720x576) VBR
Audio:
Not specified, AC3, 2/0 (L,R) ch, 192 kbps, Delay 0 mSec
Subtitles:
Not specified
VTS_04 :
Play Length: 00:00:18
Video: PAL 4:3 (720x576) VBR
Audio:
Not specified, AC3, 2/0 (L,R) ch, 256 kbps, Delay 0 mSec
VTS_05 :
Play Length: 01:48:51
Video: PAL 4:3 (720x576) VBR
Audio:
Russian, AC3, 3/2 (L,C,R,SL,SR)+LFE ch, 448 kbps, Delay 0 mSec
VTS_06 :
Play Length: 00:02:23
Video: PAL 16:9 (720x576) VBR, Auto Letterboxed
Audio:
Not specified, AC3, 2/0 (L,R) ch, 192 kbps, Delay 0 mSec
Subtitles:
Not specified
VTS_07 :
Play Length: 00:02:04
Video: PAL 4:3 (720x576) VBR
Audio:
Not specified, AC3, 2/0 (L,R) ch, 192 kbps, Delay 0 mSec
Subtitles:
Not specified
VTS_08 :
Play Length: 00:01:56
Video: PAL 16:9 (720x576) VBR, Auto Letterboxed
Audio:
Not specified, AC3, 2/0 (L,R) ch, 192 kbps, Delay 0 mSec
Subtitles:
Not specified
* Menus Information *
VIDEO_TS Menu
Video:
PAL 4:3 (720x576) VBR
English Language Unit :
Title Menu
VTS_01 Menu
Video:
PAL 4:3 (720x576) VBR
Audio:
Not specified (Dolby AC3, 2 ch)
English Language Unit :
Root Menu
VTS_02 Menu
Video:
PAL 4:3 (720x576) VBR
English Language Unit :
Root Menu
VTS_03 Menu
Video:
PAL 4:3 (720x576) VBR
English Language Unit :
Root Menu
VTS_04 Menu
Video:
PAL 4:3 (720x576) VBR
English Language Unit :
Root Menu
VTS_05 Menu
Video:
PAL 4:3 (720x576) VBR
English Language Unit :
Root Menu
Chapter (PTT) Menu
VTS_06 Menu
Video:
PAL 4:3 (720x576) VBR
English Language Unit :
Root Menu
VTS_07 Menu
Video:
PAL 4:3 (720x576) VBR
English Language Unit :
Root Menu
VTS_08 Menu
Video:
PAL 4:3 (720x576) VBR
English Language Unit :
Root Menu

Скриншоты меню

Скриншоты

[Профиль] [ЛС]
Кто просматривает тему:

Форум Тема Автор Размер
Фильмы (HD Rips | 720p, 1080p) Долгое падение / A Long Way Down (2014) BDRip 1080p sergej644 9.89 GB
Фильмы (HD Rips | 720p, 1080p) Долгое падение / A Long Way Down (2014) BDRip 720p | Лицензия sergej644 2.13 GB
Фильмы 2014 года Долгое падение / A Long Way Down (Паскаль Шомель / Pascal Chaumeil) [2014, Великобритания, Германия, драма, комедия, BDRip-AVC] Dub reversefile 745 MB
Фильмы 2014 года Долгое падение / A Long Way Down (Паскаль Шомель / Pascal Chaumeil) [2014, Великобритания, Германия, Драма, комедия, BDRip-AVC] Dub + Original + Sub (Rus) reversefile 1.45 GB
Фильмы 2014 года Долгое падение / A Long Way Down (Паскаль Шомель / Pascal Chaumeil) [2014, Великобритания, Германия, Драма, комедия, BDRip-AVC] Dub + Sub Rus + Original Eng reversefile 2.18 GB
Фильмы 2014 года Долгое падение / A Long Way Down (Паскаль Шомель / Pascal Chaumeil) [2014, Великобритания, Германия, Драма, комедия, BDRip] Dub reversefile 744 MB
Фильмы (HD Rips | 720p, 1080p) Долгое падение / A Long Way Down (Паскаль Шомель / Pascal Chaumeil) [2014, Великобритания, Германия, драма, комедия, Blu-ray disc] Dub + Sub Rus + Original Eng bot 18.49 GB
Фильмы 2014 года Долгое падение / A Long Way Down (Паскаль Шомель / Pascal Chaumeil) [2014, Великобритания, Германия, Драма, комедия, HDRip] Dub bot 1.46 GB
Показать сообщения:    

Текущее время: Сегодня 10:30

Часовой пояс: GMT



Вы не можете начинать темы
Вы не можете отвечать на сообщения
Вы не можете редактировать свои сообщения
Вы не можете удалять свои сообщения
Вы не можете голосовать в опросах
Вы не можете прикреплять файлы к сообщениям
Вы не можете скачивать файлы