Долгое падение / A Long Way Down (Паскаль Шомель / Pascal Chaumeil) [2014, Великобритания, Германия, Драма, комедия, BDRip] Dub

 
Автор Сообщение

reversefile ®

Пол:

Стаж: 4 года 5 месяцев

Сообщений: 842

Откуда: ReverseFile.org



Награды: Нет

Торрент-статистика

Создавать темы 13-Авг-2014 01:01

[Цитировать]

Долгое падение / A Long Way Down Страна: Великобритания, Германия
Жанр: Драма, комедия
Год выпуска: 2014
Продолжительность: 01:35:45
Перевод: Профессиональный (дублированный) лицензия BD RUS
Cубтитры: нет
Режиссер: Паскаль Шомель / Pascal Chaumeil
В ролях: Пирс Броснан, Имоджен Путс, Аарон Пол, Тони Коллетт, Сэм Нил, Таппенс Мидлтон, Розамунд Пайк, Зара Уайт, Джо Коул, Эвелин Дуа
Описание: Четверо незнакомцев встречаются в канун Нового Года на крыше лондонского небоскреба. Каждый из них поднялся с одной целью — прыгнуть. Очередь в лучший мир заставляет их заключить пакт — дожить до Дня всех влюбленных и оторваться по полной.
Сэмпл: http://sendfile.su/1001233
Качество видео: BDRip (Исходник: rainbow.n / Blu-ray disc / 1080p)
Формат видео: AVI
Видео: 720x304 (2.37:1), 24.000 fps, XviD build 73 ~948 kbps avg, 0.18 bit/pixel
Аудио: 48 kHz, MPEG Layer 3, 2 ch, ~128.00 kbps avg

MediaInfo

Общее
Полное имя : C:\Users\ЯРОСЛАВ\Desktop\Сверхъестественное\Dolgoe_padenie_2014_BDRip.avi
Формат : AVI
Формат/Информация : Audio Video Interleave
Размер файла : 744 Мбайт
Продолжительность : 1 ч. 35 м.
Общий поток : 1086 Кбит/сек
Программа кодирования : VirtualDubMod 1.5.10.3 | (build 2550/release)
Библиотека кодирования : VirtualDubMod build 2550/release
Видео
Идентификатор : 0
Формат : MPEG-4 Visual
Профиль формата : Advanced Simple@L5
Параметр BVOP формата : 1
Параметр QPel формата : Нет
Параметр GMC формата : Без точки перехода
Параметр матрицы формата : Выборочная
Идентификатор кодека : XVID
Идентификатор кодека/Подсказка : XviD
Продолжительность : 1 ч. 35 м.
Битрейт : 948 Кбит/сек
Ширина : 720 пикселей
Высота : 304 пикселя
Соотношение сторон : 2,35:1
Частота кадров : 24,000 кадра/сек
Цветовое пространство : YUV
Субдискретизация насыщенности : 4:2:0
Битовая глубина : 8 бит
Тип развёртки : Прогрессивная
Метод сжатия : С потерями
Бит/(Пиксели*Кадры) : 0.181
Размер потока : 650 Мбайт (87%)
Библиотека кодирования : XviD 73
Аудио
Идентификатор : 1
Формат : MPEG Audio
Версия формата : Version 1
Профиль формата : Layer 3
Идентификатор кодека : 55
Идентификатор кодека/Подсказка : MP3
Продолжительность : 1 ч. 35 м.
Вид битрейта : Постоянный
Битрейт : 128 Кбит/сек
Каналы : 2 канала
Частота : 48,0 КГц
Метод сжатия : С потерями
Размер потока : 87,7 Мбайт (12%)
Выравнивание : Соединение по промежуткам
Продолжительность промежутка : 42 мс. (1,00 видеокадр)
Время предзагрузки промежутка : 504 мс.
Библиотека кодирования : LAME3.99r
Настройки программы : -m s -V 4 -q 2 -lowpass 17 -b 128

Скриншот c названием фильма

Скриншоты

Сравнениеhttp://torrentfilm.net/forum/viewtopic.php?t=4777917 http://screenshotcomparison.com/comparison/83560
[Профиль] [ЛС]
Кто просматривает тему:

Форум Тема Автор Размер
Фильмы (HD Rips | 720p, 1080p) Долгое падение / A Long Way Down (2014) BDRip 1080p sergej644 9.89 GB
Фильмы (HD Rips | 720p, 1080p) Долгое падение / A Long Way Down (2014) BDRip 720p | Лицензия sergej644 2.13 GB
Фильмы 2014 года Долгое падение / A Long Way Down (Паскаль Шомель / Pascal Chaumeil) [2014, Великобритания, Германия, драма, комедия, BDRip-AVC] Dub reversefile 745 MB
Фильмы 2014 года Долгое падение / A Long Way Down (Паскаль Шомель / Pascal Chaumeil) [2014, Великобритания, Германия, Драма, комедия, BDRip-AVC] Dub + Original + Sub (Rus) reversefile 1.45 GB
Фильмы 2014 года Долгое падение / A Long Way Down (Паскаль Шомель / Pascal Chaumeil) [2014, Великобритания, Германия, Драма, комедия, BDRip-AVC] Dub + Sub Rus + Original Eng reversefile 2.18 GB
Фильмы (HD Rips | 720p, 1080p) Долгое падение / A Long Way Down (Паскаль Шомель / Pascal Chaumeil) [2014, Великобритания, Германия, драма, комедия, Blu-ray disc] Dub + Sub Rus + Original Eng bot 18.49 GB
Фильмы 2014 года Долгое падение / A Long Way Down (Паскаль Шомель / Pascal Chaumeil) [2014, Великобритания, Германия, Драма, комедия, HDRip] Dub bot 1.46 GB
Фильмы 2014 года Долгое падение / A Long Way Down (Паскаль Шомель / Pascal Shomel) [2014 г., Великобритания, Германия, драма, комедия, HDRip] Dub (Line) bot 700 MB
Показать сообщения:    

Текущее время: Сегодня 16:20

Часовой пояс: GMT



Вы не можете начинать темы
Вы не можете отвечать на сообщения
Вы не можете редактировать свои сообщения
Вы не можете удалять свои сообщения
Вы не можете голосовать в опросах
Вы не можете прикреплять файлы к сообщениям
Вы не можете скачивать файлы