Долгий путь Билли Линна в перерыве футбольного матча / Billy Lynn's Long Halftime Walk (2016) BDRip 720p | Лицензия

 
Автор Сообщение

BOSS ®

Пол:

Стаж: 3 года 1 месяц

Сообщений: 8254

Откуда: ODESSA



Награды: 22 (Подробнее)

Mega Seeder 2 (Количество: 1) Top Releaser 5 (Количество: 1) За внесенный вклад в развитие сайта (Количество: 1)
Торрент-статистика

Создавать темы 13-Авг-2017 13:20

[Цитировать]

Информация о фильме
Название: Долгий путь Билли Линна в перерыве футбольного матча
Оригинальное название: Billy Lynn's Long Halftime Walk
Год выхода: 2016
Жанр: Драма, военный
Режиссер: Энг Ли
В ролях: Джо Элвин, Гаррет Хедлунд, Артуро Кастро, Мэйсон Ли, Астро, Бо Напп, Исмаэль Круз, Барни Харрис, Вин Дизель, Стив Мартин
О фильме:
В 2007 году 19-летний солдат Билли Линн и его взвод вступают в бой в Ираке. Бой снимают военные журналисты, кадры расходятся по всем новостям. Билли и его боевые товарищи становятся национальными героями и возвращаются в Америку на две недели для промо-тура, кульминацией которого становится шоу в перерыве футбольного матча в День благодарения. А после него они должны снова отправиться на войну.

Страна: Великобритания, Китай, США
Студия: Bona Film Group, TriStar Pictures
Продолжительность: 01:52:45
Перевод: Профессиональный (многоголосый, закадровый)
Файл
Качество: BDRip 720p
Формат: MKV
Кодек: MPEG-4 AVC
Видео: 1280x692 (1,85:1), 23,976 fps, MPEG-4 AVC ~ 6512 Kbps avg, 0.307 bit/pixel
Аудио: АС3, 48 kHz, 6 ch, ~640.00 kbps avg | русский | Профессиональный (многоголосый, закадровый)
Аудио: DTS, 48 kHz, 6 ch, ~1509.00 kbps avg | английский |
Субтитры: Русские, английские, украинские

Инфо-файл

Общее
Уникальный идентификатор : 202533834238790659286709778311964349934 (0x985E98FD0C443A249240D633578155EE)
Полное имя : D:TorrentsЗавершенныеBilly.Lynn's.Long.Halftime.Walk.2016.720p.BluRay.Rus.Eng.HDCLUB.mkv
Формат : Matroska
Версия формата : Version 2
Размер файла : 6,96 Гбайт
Продолжительность : 1 ч. 52 м.
Общий поток : 8837 Кбит/сек
Название фильма : Billy Lynn's Long Halftime Walk (2016) - Release for HDCLUB
Дата кодирования : UTC 2017-08-13 12:01:14
Программа кодирования : mkvmerge v3.4.0 ('Rapunzel') built on May 15 2010 09:38:20
Библиотека кодирования : libebml v0.8.0 + libmatroska v0.9.0
Видео
Идентификатор : 1
Формат : AVC
Формат/Информация : Advanced Video Codec
Профиль формата : High@L4.1
Параметр CABAC формата : Да
Параметр ReFrames формата : 9 кадров
Идентификатор кодека : V_MPEG4/ISO/AVC
Продолжительность : 1 ч. 52 м.
Битрейт : 6512 Кбит/сек
Ширина : 1280 пикселей
Высота : 692 пикселя
Соотношение сторон : 1,85:1
Режим частоты кадров : Постоянный
Частота кадров : 23,976 (24000/1001) кадра/сек
Цветовое пространство : YUV
Субдискретизация насыщенности : 4:2:0
Битовая глубина : 8 бит
Тип развёртки : Прогрессивная
Бит/(Пиксели*Кадры) : 0.307
Размер потока : 5,13 Гбайт (74%)
Заголовок : Billy Lynn's Long Halftime Walk (2016) - Release for HDCLUB
Библиотека кодирования : x264 core 148 r2744 b97ae06
Настройки программы : cabac=1 / ref=9 / deblock=1:-3:-3 / analyse=0x3:0x133 / me=umh / subme=10 / psy=1 / psy_rd=1.00:0.00 / mixed_ref=1 / me_range=32 / chroma_me=1 / trellis=2 / 8x8dct=1 / cqm=0 / deadzone=21,11 / fast_pskip=0 / chroma_qp_offset=-2 / threads=8 / lookahead_threads=1 / sliced_threads=0 / nr=0 / decimate=0 / interlaced=0 / bluray_compat=0 / constrained_intra=0 / bframes=9 / b_pyramid=2 / b_adapt=2 / b_bias=0 / direct=3 / weightb=1 / open_gop=0 / weightp=2 / keyint=250 / keyint_min=23 / scenecut=40 / intra_refresh=0 / rc_lookahead=150 / rc=crf / mbtree=0 / crf=15.8 / qcomp=0.60 / qpmin=0 / qpmax=69 / qpstep=4 / vbv_maxrate=62500 / vbv_bufsize=78125 / crf_max=0.0 / nal_hrd=none / filler=0 / ip_ratio=1.30 / pb_ratio=1.20 / aq=3:0.80
Язык : English
Default : Да
Forced : Нет
Аудио #1
Идентификатор : 2
Формат : AC-3
Формат/Информация : Audio Coding 3
Параметр Endianness формата : Big
Идентификатор кодека : A_AC3
Продолжительность : 1 ч. 52 м.
Вид битрейта : Постоянный
Битрейт : 640 Кбит/сек
Каналы : 6 каналов
Расположение каналов : Front: L C R, Side: L R, LFE
Частота : 48,0 КГц
Частота кадров : 31,250 кадров/сек (1536 spf)
Битовая глубина : 16 бит
Метод сжатия : С потерями
Размер потока : 516 Мбайт (7%)
Заголовок : AC3 5.1 @ 640 kbps - MVO, iTunes
Язык : Russian
Default : Да
Forced : Нет
Аудио #2
Идентификатор : 3
Формат : DTS
Формат/Информация : Digital Theater Systems
Режим : 16
Параметр Endianness формата : Big
Идентификатор кодека : A_DTS
Продолжительность : 1 ч. 52 м.
Вид битрейта : Постоянный
Битрейт : 1509 Кбит/сек
Каналы : 6 каналов
Расположение каналов : Front: L C R, Side: L R, LFE
Частота : 48,0 КГц
Частота кадров : 93,750 кадра/сек (512 spf)
Битовая глубина : 16 бит
Метод сжатия : С потерями
Размер потока : 1,19 Гбайт (17%)
Заголовок : DTS 5.1 @ 1536 kbps
Язык : English
Default : Нет
Forced : Нет
Текст #1
Идентификатор : 4
Формат : UTF-8
Идентификатор кодека : S_TEXT/UTF8
Идентификатор кодека/Информация : UTF-8 Plain Text
Заголовок : iTunes
Язык : Russian
Default : Нет
Forced : Нет
Текст #2
Идентификатор : 5
Формат : UTF-8
Идентификатор кодека : S_TEXT/UTF8
Идентификатор кодека/Информация : UTF-8 Plain Text
Заголовок : iTunes
Язык : Ukrainian
Default : Нет
Forced : Нет
Текст #3
Идентификатор : 6
Формат : UTF-8
Идентификатор кодека : S_TEXT/UTF8
Идентификатор кодека/Информация : UTF-8 Plain Text
Заголовок : iTunes
Язык : English
Default : Нет
Forced : Нет
Меню
00:00:00.000 : en:Chapter 1
00:06:05.865 : en:Chapter 2
00:13:21.884 : en:Chapter 3
00:20:11.293 : en:Chapter 4
00:26:24.541 : en:Chapter 5
00:31:10.410 : en:Chapter 6
00:39:05.426 : en:Chapter 7
00:48:51.929 : en:Chapter 8
00:55:58.605 : en:Chapter 9
01:04:18.354 : en:Chapter 10
01:10:16.712 : en:Chapter 11
01:17:14.630 : en:Chapter 12
01:22:08.507 : en:Chapter 13
01:29:13.265 : en:Chapter 14
01:35:21.591 : en:Chapter 15
01:42:52.458 : en:Chapter 16

Скриншоты

[Профиль] [ЛС]
Кто просматривает тему:

Форум Тема Автор Размер
Классика зарубежного кино Долгий перегон / The Quest: The Longest Drive (1976) DVDRip | L1 BOSS 1.45 GB
Фильмы до 2000 года Долгий поцелуй на ночь / The Long Kiss Goodnight (Ренни Харлин) [1996 г., боевик, триллер, драма, криминал, детектив, HDRip-AVC] [MVO (Киномания)] Bathory 743 MB
Кино СССР Долгий путь (Леонид Гайдай, Валентин Невзоров) [1956, драма, DVB] reversefile 1.5 GB
Фильмы (HD Rips | 720p, 1080p) Долгий путь Билли Линна в перерыве футбольного матча / Billy Lynn's Long Halftime Walk (2016) BDRip 1080p | iTunes BOSS 11.26 GB
Фильмы (HD Rips | 720p, 1080p) Долгий путь Билли Линна в перерыве футбольного матча / Billy Lynn's Long Halftime Walk (2016) BDRip 720p | iTunes BOSS 5.86 GB
Фильмы 2016 года Долгий путь Билли Линна в перерыве футбольного матча / Billy Lynn's Long Halftime Walk (2016) BDRip | iTunes BOSS 1.41 GB
Фильмы 2016 года Долгий путь Билли Линна в перерыве футбольного матча / Billy Lynn's Long Halftime Walk (2016) BDRip | Лицензия BOSS 1.47 GB
Ultra HD (UHD: 2K,4K, 8K) — видео сверхвысокой чёткости Долгий путь Билли Линна в перерыве футбольного матча / Billy Lynn's Long Halftime Walk (2016) UHD BDRemux 2160p | 4K | HDR | Лицензия BOSS 71.95 GB
Показать сообщения:    

Текущее время: Сегодня 05:38

Часовой пояс: GMT



Вы не можете начинать темы
Вы не можете отвечать на сообщения
Вы не можете редактировать свои сообщения
Вы не можете удалять свои сообщения
Вы не можете голосовать в опросах
Вы не можете прикреплять файлы к сообщениям
Вы не можете скачивать файлы