Долгая счастливая жизнь (2013) HDTVRip 1080p от MediaClub

 
Автор Сообщение

sergej644 ®

Пол:

Стаж: 4 года 11 месяцев

Сообщений: 6046

Откуда: Soviet Union



Награды: Нет

Торрент-статистика

Создавать темы 25-Янв-2015 03:45

[Цитировать]

Информация о фильме
Оригинальное название: Долгая счастливая жизнь
Год выхода: 2013
Жанр: Драма
Режиссер: Борис Хлебников
В ролях: Александр Яценко, Анна Котова, Владимир Коробейников, Сергей Наседкин, Евгений Сытый, Глеб Пускепалис, Инна Стерлигова, Александр Алябьев, Сергей Пестриков, Павел Колесников, Денис Ятковский, Валерий Константинов, Михаил Хапчук, Людмила Фамильцева, Андрей Монахов
О фильме:
Молодой предприниматель Саша поставлен перед выбором: получив компенсацию, мирно расстаться с налаженным хозяйством и уехать в город с любимой девушкой или вступить в опасную борьбу с новыми владельцами, чтобы отстоять права живущих на его земле людей.

Страна: Россия
Студия: Кинокомпания "Коктебель"
Продолжительность: 01:15:13
Язык: Русский
Файл
Кодек: MPEG-4 AVC
Качество: HDTVRip 1080p
Видео: 5600 Кбит/с, 1920x1040, 25.000 кадр/с
Звук: Русский (АС3, 2 ch, 192 Кбит/с)
Семпл

Скриншоты

MI

Общее
Полное имя : Dolgaja.schastlivaja.zhizn.2013.x264.HDTVRip(1080p).MediaClub.mkv
Формат : Matroska
Версия формата : Version 2
Размер файла : 3,04 Гбайт
Продолжительность : 1 ч. 15 м.
Общий поток : 5791 Кбит/сек
Название фильма : MediaClub
Дата кодирования : UTC 2014-10-17 13:43:36
Программа кодирования : mkvmerge v5.4.0 ('Piper') built on Mar 10 2012 13:34:39
Библиотека кодирования : libebml v1.2.3 + libmatroska v1.3.0
Видео
Идентификатор : 1
Формат : AVC
Формат/Информация : Advanced Video Codec
Профиль формата : High@L4.1
Параметр CABAC формата : Да
Параметр ReFrames формата : 4 кадра
Идентификатор кодека : V_MPEG4/ISO/AVC
Продолжительность : 1 ч. 15 м.
Битрейт : 5600 Кбит/сек
Ширина : 1920 пикселей
Высота : 1040 пикселей
Соотношение сторон : 1,85:1
Режим частоты кадров : Постоянный
Частота кадров : 25,000 кадров/сек
Цветовое пространство : YUV
Субдискретизация насыщенности : 4:2:0
Битовая глубина : 8 бит
Тип развёртки : Прогрессивная
Бит/(Пиксели*Кадры) : 0.112
Размер потока : 2,88 Гбайт (95%)
Библиотека кодирования : x264 core 125 r2208 d9d2288
Настройки программы : cabac=1 / ref=4 / deblock=1:-3:-2 / analyse=0x3:0x133 / me=umh / subme=10 / psy=1 / psy_rd=1.00:0.20 / mixed_ref=1 / me_range=48 / chroma_me=1 / trellis=2 / 8x8dct=1 / cqm=0 / deadzone=21,11 / fast_pskip=0 / chroma_qp_offset=-3 / threads=6 / lookahead_threads=1 / sliced_threads=0 / nr=0 / decimate=0 / interlaced=0 / bluray_compat=0 / constrained_intra=0 / bframes=8 / b_pyramid=2 / b_adapt=2 / b_bias=0 / direct=3 / weightb=1 / open_gop=0 / weightp=2 / keyint=250 / keyint_min=25 / scenecut=40 / intra_refresh=0 / rc=2pass / mbtree=0 / bitrate=5600 / ratetol=1.0 / qcomp=0.60 / qpmin=0 / qpmax=69 / qpstep=4 / cplxblur=20.0 / qblur=0.5 / ip_ratio=1.40 / pb_ratio=1.30 / aq=1:1.00
Default : Да
Forced : Нет
Аудио
Идентификатор : 2
Формат : AC-3
Формат/Информация : Audio Coding 3
Расширение режима : CM (complete main)
Параметр Endianness формата : Big
Идентификатор кодека : A_AC3
Продолжительность : 1 ч. 15 м.
Вид битрейта : Постоянный
Битрейт : 192 Кбит/сек
Каналы : 2 канала
Расположение каналов : Front: L R
Частота : 48,0 КГц
Битовая глубина : 16 бит
Метод сжатия : С потерями
Размер потока : 103 Мбайт (3%)
Язык : Russian
Default : Да
Forced : Нет

Награды

Ника, 2014 год
Номинации (3):
Лучший фильм
Лучший сценарий
Лучший режиссер (Борис Хлебников)
Берлинский кинофестиваль, 2013 год
Номинации (1):
Золотой Медведь
[Профиль] [ЛС]
Показать сообщения:    

Текущее время: Сегодня 05:17

Часовой пояс: GMT



Вы не можете начинать темы
Вы не можете отвечать на сообщения
Вы не можете редактировать свои сообщения
Вы не можете удалять свои сообщения
Вы не можете голосовать в опросах
Вы не можете прикреплять файлы к сообщениям
Вы не можете скачивать файлы