Долгая прогулка Билли Линна в перерыве футбольного матча / Billy Lynn's Long Halftime Walk (2016) CAMRip | P

 
Автор Сообщение

BOSS ®

Пол:

Стаж: 2 года 11 месяцев

Сообщений: 7126

Откуда: ODESSA



Награды: 20 (Подробнее)

Top Keeper 1 (Количество: 1) Mega Seeder 3 (Количество: 1) Mega Seeder 1 (Количество: 1)
Торрент-статистика

Создавать темы 20-Янв-2017 11:29

[Цитировать]

Информация о фильме
Название: Долгая прогулка Билли Линна в перерыве футбольного матча
Оригинальное название: Billy Lynn's Long Halftime Walk
Год выхода: 2016
Жанр: Драма, военный
Режиссер: Энг Ли
В ролях: Стив Мартин, Джо Элвин, Артуро Кастро, Мэйсон Ли, Барни Харрис, Вин Дизель, Гаррет Хедлунд, Исмаэль Круз, Бо Напп, Астро
О фильме:
История о 19-летнем солдате Билли Линне и его взводе, который выживает в битве в Ираке. Во время боя они оказываются заснятыми на портативные новостные камеры, и из них вовсю лепят героев. Их привозят домой и отправляют в промо-тур, кульминацией которого становится шоу в перерыве футбольного матча в День благодарения. А после него они должны снова отправиться на войну.
Премьера (РФ): 2 марта 2017

Страна: США, Великобритания, Китай
Продолжительность: 01:40:56
Перевод: Любительский (многоголосый, закадровый) | «КОЛОБОК»
Файл
Кодек: XviD
Качество: CAMRip
Видео: 688x288 (2.39:1), 25 fps, XviD build 73 ~895 kbps avg, 0.18 bit/pixel
Звук: 44.100 kHz, MPEG Layer 3, 1 ch, ~128.00 kbps avg
Субтитры: Отсутствуют
Семпл

MI

General
Complete name : D:Изготовление рипаDolgaia progylka Billi Linna. CamRip by shkiper.avi
Format : AVI
Format/Info : Audio Video Interleave
File size : 746 MiB
Duration : 1 h 40 min
Overall bit rate : 1 034 kb/s
Writing application : VirtualDubMod 1.5.10.3 | www.virtualdub-fr.org || (build 2550/release)
Writing library : VirtualDubMod build 2550/release
Video
ID : 0
Format : MPEG-4 Visual
Format profile : Advanced Simple@L5
Format settings, BVOP : 1
Format settings, QPel : No
Format settings, GMC : No warppoints
Format settings, Matrix : Custom
Codec ID : XVID
Codec ID/Hint : XviD
Duration : 1 h 40 min
Bit rate : 896 kb/s
Width : 688 pixels
Height : 288 pixels
Display aspect ratio : 2.40:1
Frame rate : 25.000 FPS
Color space : YUV
Chroma subsampling : 4:2:0
Bit depth : 8 bits
Scan type : Progressive
Compression mode : Lossy
Bits/(Pixel*Frame) : 0.181
Stream size : 647 MiB (87%)
Writing library : XviD 73
Audio
ID : 1
Format : MPEG Audio
Format version : Version 1
Format profile : Layer 3
Codec ID : 55
Codec ID/Hint : MP3
Duration : 1 h 40 min
Bit rate mode : Constant
Bit rate : 128 kb/s
Channel(s) : 1 channel
Sampling rate : 44.1 kHz
Compression mode : Lossy
Stream size : 92.4 MiB (12%)
Alignment : Split accross interleaves
Interleave, duration : 40 ms (1.00 video frame)
Interleave, preload duratio : 500 ms
Writing library : LAME3.99r
Encoding settings : -m m -V 4 -q 2 -lowpass 20.5 -b 128

Скриншоты



Последний раз редактировалось: BOSS (2017-01-20 14:17), всего редактировалось 1 раз
[Профиль] [ЛС]

Шкипер

Пол:

Стаж: 2 года 5 месяцев

Сообщений: 61



Награды: Нет

Торрент-статистика

Создавать темы 20-Янв-2017 11:55 (спустя 26 минут)

[Цитировать]

Быстро работаете Начальник(ама)
[Профиль] [ЛС]

BOSS ®

Пол:

Стаж: 2 года 11 месяцев

Сообщений: 7126

Откуда: ODESSA



Награды: 20 (Подробнее)

Mega Seeder 2 (Количество: 1) Mega Releaser 1 (Количество: 1) Mega Seeder 4 (Количество: 1)
Торрент-статистика

Создавать темы 20-Янв-2017 14:18 (спустя 2 часа 22 минуты)

[Цитировать]

106593Быстро работаете Начальник(ама)
Стараемся.
[Профиль] [ЛС]
Показать сообщения:    

Текущее время: Сегодня 03:20

Часовой пояс: GMT



Вы не можете начинать темы
Вы не можете отвечать на сообщения
Вы не можете редактировать свои сообщения
Вы не можете удалять свои сообщения
Вы не можете голосовать в опросах
Вы не можете прикреплять файлы к сообщениям
Вы не можете скачивать файлы