Доктор (Владимир Панков) [2012, Россия, драма, DVD5] R5 Original Rus

 
Автор Сообщение

TorrentFilm ®

Пол:

Стаж: 2 года

Сообщений: 7741



Награды: Нет

Торрент-статистика

Создавать темы 01-Янв-2016 00:20

[Цитировать]

-Доктор -Страна: Россия
Студия: Жанр
Жанр: драма
Год выпуска: 2012
Российская премьера: 16 августа 2012
Дата выхода DVD: 3 декабря 2013, «Lizard Cinema Trade»
Продолжительность: 01:35:02
Перевод: Оригинал [Лицензия]
Cубтитры: нет
Оригинальная аудиодорожка: русский-Режиссер: Владимир Панков-В ролях: Инга Сметанина, Татьяна Кличановская, Павел Акимкин, Ольга Герчакова, Сергей Агафонов, Людмила Шергина, Андрей Заводюк, Алина Ольшанская, Алексей Багдасаров-Описание: Главный герой — хирург Андрей. Он прошел путь от молодого врача до профессионала. На его долю выпало преодоление чудовищных реалий российской действительности: работа в отсутствие медикаментов и аппаратуры, когда полагаться можно только на интуицию. Его жизнь — ежедневный подвиг спасения человеческих жизней в нечеловеческих условиях. Впрочем, сам он свою жизнь подвигом не считает: он просто выполняет свою работу…-Бонусы: нет- -Качество: DVD5 R5
Формат: DVD-Video
Видео кодек: MPEG2
Аудио кодек: AC3
Видео: PAL 16:9 (720x576(0.482)) MPEG Video, 25,000 кадр/сек, 4996 Кбит/сек
Аудио #1: Russian (Dolby AC3, 6 ch) 448 Кбит/сек, 48,0 КГц
Аудио #2: Russian (Dolby AC3, 2 ch) 192 Кбит/сек, 48,0 КГц--

DVDInfo

Title: Doktor.2012.DVD5
Size: 3.97 Gb ( 4 161 456,00 KBytes ) - DVD-5
Enabled regions: 1, 2, 3, 4, 5, 6, 7, 8
VTS_01 :
Play Length: 00:00:39+{00:00:39}
Video: PAL 4:3 (720x576) VBR
VTS_02 :
Play Length: 01:35:02
Video: PAL 16:9 (720x576) VBR, Auto Letterboxed
Audio:
Russian (Dolby AC3, 6 ch)
Russian (Dolby AC3, 2 ch)
* Menus Information *
VIDEO_TS Menu
Video:
PAL 16:9 (720x576) VBR
Auto Pan&Scan, Auto Letterboxed
English Language Unit :
Title Menu
VTS_01 Menu
Video:
PAL 16:9 (720x576) VBR
Auto Letterboxed
Audio:
Not specified (Dolby AC3, 2 ch)
English Language Unit :
Root Menu
VTS_02 Menu
Video:
PAL 4:3 (720x576) VBR
English Language Unit :
Root Menu

MediaInfo

Общее
Полное имя : K:\Новинки 2013\Doktor.2012.DVD5\VIDEO_TS\VTS_02_2.VOB
Формат : MPEG-PS
Размер файла : 1024 Мбайт
Продолжительность : 24 м.
Режим общего битрейта : Переменный
Общий поток : 5751 Кбит/сек
Видео
Идентификатор : 224 (0xE0)
Формат : MPEG Video
Версия формата : Version 2
Профиль формата : Main@Main
Параметр BVOP формата : Да
Параметр матрицы формата : По умолчанию
Параметр GOP формата : M=3, N=15
Продолжительность : 24 м.
Вид битрейта : Переменный
Битрейт : 4996 Кбит/сек
Максимальный битрейт : 6000 Кбит/сек
Ширина : 720 пикселей
Высота : 576 пикселей
Соотношение сторон : 4:3
Частота кадров : 25,000 кадров/сек
Стандарт вещания : PAL
Цветовое пространство : YUV
Субдискретизация насыщенности : 4:2:0
Битовая глубина : 8 бит
Тип развёртки : Прогрессивная
Метод сжатия : С потерями
Бит/(Пиксели*Кадры) : 0.482
Временной код первого кадра : 00:24:54:00
Оригинал временного кода : Group of pictures header
Размер потока : 889 Мбайт (87%)
Аудио #1
Идентификатор : 189 (0xBD)-128 (0x80)
Формат : AC-3
Формат/Информация : Audio Coding 3
Расширение режима : CM (complete main)
Параметр Endianness формата : Big
Режим смешивания : DVD-Video
Продолжительность : 24 м.
Вид битрейта : Постоянный
Битрейт : 448 Кбит/сек
Каналы : 6 каналов
Расположение каналов : Front: L C R, Side: L R, LFE
Частота : 48,0 КГц
Битовая глубина : 16 бит
Метод сжатия : С потерями
Задержка видео : -640 мс.
Размер потока : 79,8 Мбайт (8%)
Аудио #2
Идентификатор : 189 (0xBD)-129 (0x81)
Формат : AC-3
Формат/Информация : Audio Coding 3
Расширение режима : CM (complete main)
Параметр Endianness формата : Big
Режим смешивания : DVD-Video
Продолжительность : 24 м.
Вид битрейта : Постоянный
Битрейт : 192 Кбит/сек
Каналы : 2 канала
Расположение каналов : Front: L R
Частота : 48,0 КГц
Битовая глубина : 16 бит
Метод сжатия : С потерями
Задержка видео : -544 мс.
Размер потока : 34,2 Мбайт (3%)

Скриншоты меню

Скриншоты фильма


-
-Раздача от группы:
[Профиль] [ЛС]
Кто просматривает тему:

Форум Тема Автор Размер
Разная литература Александр Кондрашов | Доктор Борменталь. 8 уроков сжигания жира (2015) [FB2, RTF] достали все 10 MB
Фильмы 2015 года Воздух / Air (Кристиан Кантамесса / Christian Cantamessa) [2015, США, фантастика, триллер, WEB-DLRip] VO (Хихикающий доктор) TorrentFilm 1.37 GB
Фильмы 2014 года Волк-полицейский / WolfCop (Лоуелл Дин / Lowell Dean) [2014, Канада, Ужасы, комедия, HDRip] VO (Хихикающий доктор) + Original Eng TorrentFilm 1.38 GB
Фильмы 2009 года Воображариум доктора Парнаса / The Imaginarium of Doctor Parnassus (Терри Гиллиам / Terry Gilliam) [2009, Великобритания, Канада, Франция, фэнтези, детектив, приключения, BDRip] AVO (Гаврилов) TorrentFilm 1.46 GB
Фильмы (HD Rips | 720p, 1080p) Джеймс Бонд. Агент 007: Доктор Ноу / James Bond: Dr. No (1962) BDRip 1080p sergej644 7.76 GB
R.G.TorrentFilm Video Дикие лошади / Wild Horses (Роберт Дювалл / Robert Duvall) [2015, США, Драма, криминал, HDRip] VO (Хихикающий доктор) Один 777 745 MB
Отечественные мультфильмы Доктор Айболит (Давид Черкасский) [1984-1985 гг, мультфильм, анимация, DVB] TorrentFilm 1.74 GB
Зарубежные сериалы Доктор Кто / Doctor Who [S01-08] (2005-2014) DVDRip | P, P2, L Russian Mafia 23.88 GB
Показать сообщения:    

Текущее время: Сегодня 02:15

Часовой пояс: GMT



Вы не можете начинать темы
Вы не можете отвечать на сообщения
Вы не можете редактировать свои сообщения
Вы не можете удалять свои сообщения
Вы не можете голосовать в опросах
Вы не можете прикреплять файлы к сообщениям
Вы не можете скачивать файлы