Доктор Торн / Doctor Thorne [S01] (2016) HDTV 720р | Sunshine Studio

 
Автор Сообщение

достали все ®

Пол:

Стаж: 2 года 2 месяца

Сообщений: 6784



Награды: 12 (Подробнее)

Mega Releaser 3 (Количество: 1) Top Releaser 4 (Количество: 1) Mega Releaser 1 (Количество: 1)
Торрент-статистика

Создавать темы 06-Апр-2016 10:07

[Цитировать]

Название: Доктор Торн
Оригинальное название: Doctor Thorne
Год выхода: 2016
Жанр: криминал
Режиссер:
Найал МакКормик
В ролях:
Элисон Бри, Иэн МакШейн, Николас Роу, Том Холландер, Ребекка Фронт, Том Белл, Фиби Николлс, Ричард МакКейб, Джанин Дувицкий, Гвинет Киворт и др.
Описание сериала:
Телеэкранизация одноимённой новеллы Энтони Троллопа. В центре сюжета — аристократ Томас Торн, вовлечённый в круговорот событий, связанных с намерением его племянника жениться на юной и красивой бесприданнице.

Страна: Великобритания
Производство: Hat Trick (Trollope), Hat Trick Productions
Продолжительность: ~ 00:50:00
Перевод: Любительский (двухголосый) Sunshine Studio
Субтитры: Отсутствуют
Реклама: Присутствует
Файл
Формат: MKV
Качество: HDTV 720р
Видео: MPEG-4 AVC, ~ 2600 Кбит/с, 1280x720
Аудио: 48 kHz, AC3 Dolby Digital, 2/0 (L,R) ch, ~192 kbps
Релиз группа:

MediaInfo

Формат : Matroska
Версия формата : Version 4 / Version 2
Размер файла : 712 Мбайт
Продолжительность : 46 м.
Общий поток : 2153 Кбит/сек
Дата кодирования : UTC 2016-04-03 19:45:52
Программа кодирования : mkvmerge v6.1.0 ('Old Devil') built on Mar 4 2013 09:10:42
Библиотека кодирования : libebml v1.3.0 + libmatroska v1.4.0
Видео
Идентификатор : 1
Формат : AVC
Формат/Информация : Advanced Video Codec
Профиль формата : High@L3.1
Параметр CABAC формата : Да
Параметр ReFrames формата : 4 кадра
Идентификатор кодека : V_MPEG4/ISO/AVC
Продолжительность : 46 м.
Битрейт : 1918 Кбит/сек
Ширина : 1280 пикселей
Высота : 720 пикселей
Соотношение сторон : 16:9
Режим частоты кадров : Постоянный
Частота кадров : 25,000 кадров/сек
Цветовое пространство : YUV
Субдискретизация насыщенности : 4:2:0
Битовая глубина : 8 бит
Тип развёртки : Прогрессивная
Бит/(Пиксели*Кадры) : 0.083
Размер потока : 634 Мбайт (89%)
Библиотека кодирования : x264 core 130 r2273 b3065e6
Настройки программы : cabac=1 / ref=1 / deblock=1:0:0 / analyse=0x3:0x113 / me=hex / subme=2 / psy=1 / psy_rd=1.00:0.10 / mixed_ref=0 / me_range=16 / chroma_me=1 / trellis=0 / 8x8dct=1 / cqm=0 / deadzone=21,11 / fast_pskip=1 / chroma_qp_offset=0 / threads=6 / lookahead_threads=2 / sliced_threads=0 / nr=0 / decimate=1 / interlaced=0 / bluray_compat=0 / constrained_intra=0 / bframes=3 / b_pyramid=2 / b_adapt=1 / b_bias=0 / direct=1 / weightb=1 / open_gop=0 / weightp=1 / keyint=250 / keyint_min=25 / scenecut=40 / intra_refresh=0 / rc_lookahead=10 / rc=crf / mbtree=1 / crf=17.0 / qcomp=0.60 / qpmin=0 / qpmax=69 / qpstep=4 / ip_ratio=1.40 / aq=1:1.00
Язык : English
Default : Да
Forced : Нет
Аудио
Идентификатор : 2
Формат : AC-3
Формат/Информация : Audio Coding 3
Расширение режима : CM (complete main)
Параметр Endianness формата : Big
Идентификатор кодека : A_AC3
Продолжительность : 46 м.
Вид битрейта : Постоянный
Битрейт : 192 Кбит/сек
Каналы : 2 канала
Расположение каналов : Front: L R
Частота : 48,0 КГц
Частота кадров : 31,250 кадров/сек (1536 spf)
Метод сжатия : С потерями
Размер потока : 63,5 Мбайт (9%)
Default : Да
Forced : Нет

Скриншоты

[Профиль] [ЛС]
Кто просматривает тему:

Форум Тема Автор Размер
Разная литература Александр Кондрашов | Доктор Борменталь. 8 уроков сжигания жира (2015) [FB2, RTF] достали все 10 MB
Фильмы 2015 года Ванна времени Доктора Проктора / Doktor Proktors tidsbadekar (2015) HDRip | L1 BOSS 1.45 GB
Фильмы 2015 года Воздух / Air (Кристиан Кантамесса / Christian Cantamessa) [2015, США, фантастика, триллер, WEB-DLRip] VO (Хихикающий доктор) TorrentFilm 1.37 GB
Фильмы 2014 года Волк-полицейский / WolfCop (Лоуелл Дин / Lowell Dean) [2014, Канада, Ужасы, комедия, HDRip] VO (Хихикающий доктор) + Original Eng TorrentFilm 1.38 GB
Фильмы 2009 года Воображариум доктора Парнаса / The Imaginarium of Doctor Parnassus (Терри Гиллиам / Terry Gilliam) [2009, Великобритания, Канада, Франция, фэнтези, детектив, приключения, BDRip] AVO (Гаврилов) TorrentFilm 1.46 GB
Фильмы (HD Rips | 720p, 1080p) Джеймс Бонд. Агент 007: Доктор Ноу / James Bond: Dr. No (1962) BDRip 1080p sergej644 7.76 GB
R.G.TorrentFilm Video Дикие лошади / Wild Horses (Роберт Дювалл / Robert Duvall) [2015, США, Драма, криминал, HDRip] VO (Хихикающий доктор) Один 777 745 MB
Фильмы (DVD 5/9) Доктор (Владимир Панков) [2012, Россия, драма, DVD5] R5 Original Rus TorrentFilm 3.97 GB
Показать сообщения:    

Текущее время: Сегодня 03:20

Часовой пояс: GMT



Вы не можете начинать темы
Вы не можете отвечать на сообщения
Вы не можете редактировать свои сообщения
Вы не можете удалять свои сообщения
Вы не можете голосовать в опросах
Вы не можете прикреплять файлы к сообщениям
Вы не можете скачивать файлы