Доктор Рихтер [S03] (2019) HDTV 1080p от Generalfilm

 
Author Message

sergej644 ®

Gender:

Longevity: 8 years

Posts: 7322



: 10 ()

Mega Seeder 2 (1) Mega Seeder 4 (1) Top Seeder 2 (1)
Торрент-статистика

Post 24-Nov-2019 00:13

[Quote]

Доктор Рихтер
Информация о фильме
Год выпуска: 2019
Страна: Россия, Нон-стоп Продакшн
Жанр: драма, детектив, медицина, адаптация-Перевод: Не требуется
Продолжительность: ~ 00:51:32-Режиссер: Андрей Прошкин, Илья Казанков, Максим Демченко
В ролях: Алексей Серебряков (Андрей Александрович Рихтер, заведующий лечебно-диагностическим отделением), Дмитрий Ендальцев (Калинин, хирург), Полина Чернышова (Ольга Ходасевич, иммунолог), Павел Чинарёв (Руслан Егоршин, невролог), Анна Михалкова (Елизавета Никольская, эндокринолог и заведующая клиникой), Виталий Хаев (Иван Родионов, онколог, друг Рихтера), Александр Яценко (Григорий Филин, миллионер, жертвующий клинике большие суммы денег), Мария Миронова (юрист и бывшая гражданская жена Рихтера), Екатерина Вилкова (Ирина), Александр Робак (Шевцов), Ирина Пегова (мать Демьяна), Дарья Екамасова (мать Демьяна)
-Описание:
Городская клиническая больница № 100. Заведующий лечебно-диагностическим отделением Андрей Александрович Рихтер вместе с командой расследует сложные медицинские случаи, с которыми не справились другие врачи.
Рихтер – гений своего дела. Правда интересуют его только самые сложные и запутанные случаи – медицинские головоломки.-Рейтинг:
-Качество: HDTV 1080p
Формат: MKV
Видео: AVC, 1920x1080 (16:9), 6057 kbps, 25 fps, 0,117 bpp
Аудио: AC3 / 2.0 / 48 kHz / 192 kbps /-Релиз от: -

ОтчетМедиаИнфо

General
Unique ID : 196654850297355155421207416018721786873 (0x93F258B38BFA31AD934ED3C921F74BF9)
Complete name : E:Запись с твDoktor Rixter S03 2019 HDTV 1080p RG GeneralFilmDoktor Rixter.s03.e16.2019.HDTV 1080p.by.White Smoke.R.G.Generalfilm.mkv
Format : Matroska
Format version : Version 4 / Version 2
File size : 2.32 GiB
Duration : 51 min 32 s
Overall bit rate mode : Constant
Overall bit rate : 6 454 kb/s
Movie name : Doktor Rixter.s03.e16.2019.HDTV 1080p.by.White Smoke.R.G.Generalfilm.mkv
Encoded date : UTC 2019-11-23 14:53:54
Writing application : mkvmerge v6.8.0 ('Theme for Great Cities') 64bit built on Mar 2 2014 21:34:26
Writing library : libebml v1.3.0 + libmatroska v1.4.1
Cover : Yes
Attachments : cover.jpg
Video
ID : 1
Format : AVC
Format/Info : Advanced Video Codec
Format profile : High@L4.1
Format settings : CABAC / 3 Ref Frames
Format settings, CABAC : Yes
Format settings, ReFrames : 3 frames
Codec ID : V_MPEG4/ISO/AVC
Duration : 51 min 32 s
Bit rate mode : Constant
Bit rate : 6 134 kb/s
Nominal bit rate : 7 051 kb/s
Width : 1 920 pixels
Height : 1 080 pixels
Display aspect ratio : 16:9
Frame rate mode : Constant
Frame rate : 25.000 FPS
Standard : PAL
Color space : YUV
Chroma subsampling : 4:2:0
Bit depth : 8 bits
Scan type : Progressive
Bits/(Pixel*Frame) : 0.118
Stream size : 2.21 GiB (95%)
Default : No
Forced : No
Color range : Limited
Color primaries : BT.709
Transfer characteristics : BT.709
Matrix coefficients : BT.709
Audio
ID : 2
Format : AC-3
Format/Info : Audio Coding 3
Commercial name : Dolby Digital
Codec ID : A_AC3
Duration : 51 min 32 s
Bit rate mode : Constant
Bit rate : 192 kb/s
Channel(s) : 2 channels
Channel layout : L R
Sampling rate : 48.0 kHz
Frame rate : 31.250 FPS (1536 SPF)
Bit depth : 16 bits
Compression mode : Lossy
Stream size : 70.8 MiB (3%)
Service kind : Complete Main
Default : Yes
Forced : No

Скриншоты

[Profile] [PM]
Кто просматривает тему:

Forum Topic Author Size
Разная литература Александр Кондрашов | Доктор Борменталь. 8 уроков сжигания жира (2015) [FB2, RTF] достали все 10 MB
Зарубежное кино (CAMRip, Telesynch, SCR) Афера доктора Нока / Knock (2017) CAMRip | D BOSS 1.46 GB
Фильмы 2015 года Ванна времени Доктора Проктора / Doktor Proktors tidsbadekar (2015) HDRip | L1 BOSS 1.45 GB
Фильмы 2015 года Воздух / Air (Кристиан Кантамесса / Christian Cantamessa) [2015, США, фантастика, триллер, WEB-DLRip] VO (Хихикающий доктор) TorrentFilm 1.37 GB
Фильмы 2014 года Волк-полицейский / WolfCop (Лоуелл Дин / Lowell Dean) [2014, Канада, Ужасы, комедия, HDRip] VO (Хихикающий доктор) + Original Eng TorrentFilm 1.38 GB
Фильмы 2009 года Воображариум доктора Парнаса / The Imaginarium of Doctor Parnassus (Терри Гиллиам / Terry Gilliam) [2009, Великобритания, Канада, Франция, фэнтези, детектив, приключения, BDRip] AVO (Гаврилов) TorrentFilm 1.46 GB
Фильмы (HD Rips | 720p, 1080p) Джеймс Бонд. Агент 007: Доктор Ноу / James Bond: Dr. No (1962) BDRip 1080p sergej644 7.76 GB
R.G.TorrentFilm Video Дикие лошади / Wild Horses (Роберт Дювалл / Robert Duvall) [2015, США, Драма, криминал, HDRip] VO (Хихикающий доктор) Один 777 745 MB
Display posts from previous:    

The time now is: Today 04:38

All times are GMT



You cannot post new topics in this forum
You cannot reply to topics in this forum
You cannot edit your posts in this forum
You cannot delete your posts in this forum
You cannot vote in polls in this forum
You cannot attach files in this forum
You cannot download files in this forum