Доктор Кто 3д / Doctor Who 3D / Сезон 7 / Серия 15 (15) [2013, Фантастика, HDTV] MVO (BaibaKo) Half SideBySide горизонтальная анаморфная стереопара

 
Автор Сообщение

TorrentFilm ®

Пол:

Стаж: 2 года

Сообщений: 7741



Награды: Нет

Торрент-статистика

Создавать темы 04-Янв-2016 00:01

[Цитировать]

Доктор Кто / Doctor Who--День Доктора в 3D / The Day of the Doctor 3D-- --Год выпуска: 2013 г. | Жанр: Фантастика | Страна: Великобритания
Перевод: Профессиональный многоголосый закадровый (BaibaKo)
Автор идеи: Стивен Моффат
Режиссер: Ник Харран
В главных ролях: Мэтт Смит, Дженна-Луиза Коулман, Дэвид Теннант, Билли Пайпер, Джон Хёрт
Описание:
Специальный эпизод, посвященный 50-летию сериала "Доктор Кто". Руководитель Разведывательных Сил Объединенных Наций вызывает Доктора с тем, чтобы передать ему поручение королевы Елизаветы I - женщины, некогда бывшей его тайной супругой. Исследуя тайную королевскую коллекцию картин, Доктор сталкивается с разломом во времени, соединяющим три эпохи его жизни - время его путешествий с Кларой, время его женитьбы на Елизавете и время, когда он совершил самую страшную ошибку в своей жизни - эпоху Последней Великой Войны Времени. Объединившись, три воплощения Доктора должны понять суть происходящих событий и спасти Лондон от уничтожения, всю Землю - от завоевания, а Повелителей Времени - от окончательного истребления.
--Релиз-группа:

Перевод: Татьяна Saavick
Роли озвучивали: Светлана Доманова, Лира Грим, Ольга Мотрич, Алексей Кузнецов, Владимир Курдов, Александр Фурман, Дмитрий Глебов и Виталий Ткаченко
Сведение: Виталий Ткаченко
Обложки для эпизодов: tvblog

Спонсоры

Отдельное спасибо всем спонсорам озвучивания - altdesign, visew, Arkutas, Аноним, Vol, Beangodets, Gogens, Ziptar!

-
-Качество: HDTV 3D 1080i Half SideBySide горизонтальная анаморфная стереопара | Формат: TS | Продолжительность: ~ 01:16:49
Видео: AVC, 1920 x 1080 (16:9), 25fps, 6580 kbps, 0.127 bit/pixel | Sample
Аудио RUS: AC3, 48 kHz, 6 ch, 384 kbps | Аудио ENG: AC3, 48 kHz, 6 ch, 384 kbps
-
-

MediaInfo

Формат : MPEG-TS
Размер файла : 4,15 Гбайт
Продолжительность : 1 ч. 16 м.
Режим общего битрейта : Переменный
Общий поток : 7739 Кбит/сек
Максимальный общий битрейт : 35,5 Мбит/сек
Видео
Идентификатор : 4113 (0x1011)
Идентификатор меню : 1 (0x1)
Формат : AVC
Формат/Информация : Advanced Video Codec
Профиль формата : High@L4.0
Параметр CABAC формата : Да
Параметр ReFrames формата : 4 кадра
Параметр GOP формата : M=8, N=24
Идентификатор кодека : 27
Продолжительность : 1 ч. 16 м.
Вид битрейта : Переменный
Битрейт : 6580 Кбит/сек
Максимальный битрейт : 40,0 Мбит/сек
Ширина : 1920 пикселей
Высота : 1080 пикселей
Соотношение сторон : 16:9
Частота кадров : 25,000 кадров/сек
Цветовое пространство : YUV
Субдискретизация насыщенности : 4:2:0
Битовая глубина : 8 бит
Тип развёртки : MBAFF
Бит/(Пиксели*Кадры) : 0.127
Размер потока : 3,53 Гбайт (85%)
Основные цвета : BT.709-5, BT.1361, IEC 61966-2-4, SMPTE RP177
Характеристики трансфера : BT.709-5, BT.1361
Коэффициенты матрицы : BT.709-5, BT.1361, IEC 61966-2-4 709, SMPTE RP177
Аудио #1
Идентификатор : 4352 (0x1100)
Идентификатор меню : 1 (0x1)
Формат : AC-3
Формат/Информация : Audio Coding 3
Расширение режима : CM (complete main)
Параметр Endianness формата : Big
Идентификатор кодека : 129
Продолжительность : 1 ч. 16 м.
Вид битрейта : Постоянный
Битрейт : 384 Кбит/сек
Каналы : 6 каналов
Расположение каналов : Front: L C R, Side: L R, LFE
Частота : 48,0 КГц
Битовая глубина : 16 бит
Метод сжатия : С потерями
Размер потока : 211 Мбайт (5%)
Язык : Russian
Аудио #2
Идентификатор : 4353 (0x1101)
Идентификатор меню : 1 (0x1)
Формат : AC-3
Формат/Информация : Audio Coding 3
Расширение режима : CM (complete main)
Параметр Endianness формата : Big
Идентификатор кодека : 129
Продолжительность : 1 ч. 16 м.
Вид битрейта : Постоянный
Битрейт : 384 Кбит/сек
Каналы : 6 каналов
Расположение каналов : Front: L C R, Side: L R, LFE
Частота : 48,0 КГц
Битовая глубина : 16 бит
Метод сжатия : С потерями
Размер потока : 211 Мбайт (5%)
Язык : English

Скриншоты

[Профиль] [ЛС]
Кто просматривает тему:

Форум Тема Автор Размер
Разная литература Александр Кондрашов | Доктор Борменталь. 8 уроков сжигания жира (2015) [FB2, RTF] достали все 10 MB
Фильмы 2015 года Воздух / Air (Кристиан Кантамесса / Christian Cantamessa) [2015, США, фантастика, триллер, WEB-DLRip] VO (Хихикающий доктор) TorrentFilm 1.37 GB
Фильмы 2014 года Волк-полицейский / WolfCop (Лоуелл Дин / Lowell Dean) [2014, Канада, Ужасы, комедия, HDRip] VO (Хихикающий доктор) + Original Eng TorrentFilm 1.38 GB
Фильмы 2009 года Воображариум доктора Парнаса / The Imaginarium of Doctor Parnassus (Терри Гиллиам / Terry Gilliam) [2009, Великобритания, Канада, Франция, фэнтези, детектив, приключения, BDRip] AVO (Гаврилов) TorrentFilm 1.46 GB
Фильмы (HD Rips | 720p, 1080p) Джеймс Бонд. Агент 007: Доктор Ноу / James Bond: Dr. No (1962) BDRip 1080p sergej644 7.76 GB
R.G.TorrentFilm Video Дикие лошади / Wild Horses (Роберт Дювалл / Robert Duvall) [2015, США, Драма, криминал, HDRip] VO (Хихикающий доктор) Один 777 745 MB
Фильмы (DVD 5/9) Доктор (Владимир Панков) [2012, Россия, драма, DVD5] R5 Original Rus TorrentFilm 3.97 GB
Отечественные мультфильмы Доктор Айболит (Давид Черкасский) [1984-1985 гг, мультфильм, анимация, DVB] TorrentFilm 1.74 GB
Показать сообщения:    

Текущее время: Сегодня 00:30

Часовой пояс: GMT



Вы не можете начинать темы
Вы не можете отвечать на сообщения
Вы не можете редактировать свои сообщения
Вы не можете удалять свои сообщения
Вы не можете голосовать в опросах
Вы не можете прикреплять файлы к сообщениям
Вы не можете скачивать файлы