Доктор Кто / Doctor Who [S08] (2014) BDRemux 1080р | Baibako, Jaskier, ВГТРК

 
Автор Сообщение

Russian Mafia ®

Пол:

Стаж: 1 год 8 месяцев

Сообщений: 4257



Награды: 10 (Подробнее)

Top Releaser 2 (Количество: 1) За внесенный вклад в развитие сайта (Количество: 1) Mega Seeder 5 (Количество: 1)
Торрент-статистика

Создавать темы 13-Апр-2016 12:08

[Цитировать]

Доктор Кто | Doctor Who
«Trust Your Doctor»

Сезон 8, Эпизодs c 1 по 13
Информация о фильме:
Название: Доктор Кто
Оригинальное название: Doctor Who
Год выпуска: 2014
Жанр: фантастика, драма, комедия, приключения
Режиссёр: Грэм Харпер, Эрос Лин, Дуглас Маккиннон
В ролях: Питер Капальди, Дженна Коулман и многие другие...
Описание: "Доктор КТО" - это не имя, а вопрос, на который пока нет ответа. Известно, что тот, кто называет себя Доктором - Повелитель Времени с планеты Галлифрей. Сотни лет, веселый и мудрый, он путешествует сквозь время в своем Тардисе - корабле, внешне похожим на британский полицейский телефон-автомат, но почти бесконечно большим изнутри. На этот раз Доктор спасши из лап манекенов-убийц симпатичную блондинку по имени Роуз и найдя её в меру полезной, предлагает ей отправиться в своё путешествие вместе.
Началось всё в далёком 1963 году с чёрно-белого сериала о человеке, называющем себя просто Доктор, который путешествует во времени и пространстве с целью спасения человечества. Сама идея - это огромное поле для фантазии любого автора. Поэтому и полюбилась эта история зрителям и читателям.
За сорока двухлетнюю историю сериала сменилось 9 актёров играющих Доктора. Каждый сериал выходил в свой отрезок времени и, порой перерывы между новыми эпизодами составляли несколько лет. Но зритель ждал субботних вечеров на BBC и дождался таки в 2005-ом году, долгожданного продолжения любимой истории.


Страна: Великобритания, British Broadcasting Corporation (BBC), Canadian Broadcasting Corporation (CBC)

Продолжительность: по ~ 00:45:00 (01:16:29 - для 1-го эпизода и 01:00:23 - для 13-го эпизода)
Перевод:
- Любительский (многоголосый, закадровый) [Baibako] (для всех эпизодов)
- Профессиональный (многоголосый, закадровый) [Jaskier] (для всех эпизодов)
- Профессиональный (многоголосый, закадровый) [ВГТРК] (для эпизодов 1-12)

О релизе:

Сохранены оригинальные чаптеры как на Blu-Ray
За дорожку ВГТРК спасибо: Nez'у
Файл:
Формат: MKV
Видео кодек: MPEG-4 AVC
Аудио кодек: DTS, AC3, DTS-HD MA
Свойства видео: 1920x1080 (16:9), 25.000 fps, ~33000 kbps, 0.58 bits/pixel
Аудио #1 : 48 kHz, DTS, 3/2 (L,C,R,l,r) + LFE ch, ~1509.00 kbps avg |Любительский (многоголосый, закадровый) [Baibako]
Аудио #2 : 48 kHz, AC3, 3/2 (L,C,R,l,r) + LFE ch, ~384.00 kbps avg |Профессиональный (многоголосый, закадровый) [Jaskier]
Аудио #3 : 48 kHz, AC3, 2/0 (L,R) ch, ~192.00 kbps avg |Профессиональный (многоголосый, закадровый) [ВГТРК]
Аудио #4 : 48 kHz, DTS-HD MA, 3/2 (L,C,R,l,r) + LFE ch, ~2198.00 kbps avg (DTS Core: 5.1 / 48 kHz / 1509 kbps / 16-bit) |Оригинал|
Аудио #5 : 48 kHz, AC3, 2 (L,R) ch, ~192.00 kbps avg |Commentary|

MediaInfo:

General
Unique ID : 245522178027907206637931041848366352241 (0xB8B5D9F9C65DCBA68CFA09CBDE7A4771)
Complete name : F:dwDoctor Who S08 BDRemux 1080p 2xRus Eng Subs by Stiles RG SerialSDoctor Who S08E08 Mummy On The Orient Express BDRemux 1080p 2xRus Eng Subs by Stiles RG SerialS.mkv
Format : Matroska
Format version : Version 4 / Version 2
File size : 11.0 GiB
Duration : 46mn 34s
Overall bit rate mode : Variable
Overall bit rate : 33.7 Mbps
Encoded date : UTC 2016-01-30 17:07:25
Writing application : mkvmerge v7.9.0 ('Birds') 64bit
Writing library : libebml v1.3.1 + libmatroska v1.4.2
DURATION : 00:46:34.624000000
NUMBER_OF_FRAMES : 87332
NUMBER_OF_BYTES : 111784960
_STATISTICS_WRITING_APP : mkvmerge v7.9.0 ('Birds') 64bit
_STATISTICS_WRITING_DATE_UT : 2016-01-30 17:07:25
_STATISTICS_TAGS : BPS DURATION NUMBER_OF_FRAMES NUMBER_OF_BYTES
Video
ID : 1
Format : AVC
Format/Info : Advanced Video Codec
Format profile : High@L4.1
Format settings, CABAC : Yes
Format settings, ReFrames : 4 frames
Codec ID : V_MPEG4/ISO/AVC
Duration : 46mn 34s
Bit rate mode : Variable
Maximum bit rate : 33.0 Mbps
Width : 1 920 pixels
Height : 1 080 pixels
Display aspect ratio : 16:9
Frame rate mode : Constant
Frame rate : 25.000 fps
Color space : YUV
Chroma subsampling : 4:2:0
Bit depth : 8 bits
Scan type : MBAFF
Scan order : Top Field First
Language : English
Default : Yes
Forced : No
Audio #1
ID : 2
Format : DTS
Format/Info : Digital Theater Systems
Mode : 16
Format settings, Endianness : Big
Codec ID : A_DTS
Duration : 46mn 34s
Bit rate mode : Constant
Bit rate : 1 509 Kbps
Channel(s) : 6 channels
Channel positions : Front: L C R, Side: L R, LFE
Sampling rate : 48.0 KHz
Bit depth : 24 bits
Compression mode : Lossy
Stream size : 503 MiB (4%)
Title : BaibaKo
Language : Russian
Default : Yes
Forced : No
Audio #2
ID : 3
Format : AC-3
Format/Info : Audio Coding 3
Mode extension : CM (complete main)
Format settings, Endianness : Big
Codec ID : A_AC3
Duration : 46mn 34s
Bit rate mode : Constant
Bit rate : 384 Kbps
Channel(s) : 6 channels
Channel positions : Front: L C R, Side: L R, LFE
Sampling rate : 48.0 KHz
Compression mode : Lossy
Delay relative to video : 2s 200ms
Stream size : 128 MiB (1%)
Title : Jaskier
Language : Russian
Default : No
Forced : No
Audio #3
ID : 4
Format : AC-3
Format/Info : Audio Coding 3
Mode extension : CM (complete main)
Format settings, Endianness : Big
Codec ID : A_AC3
Duration : 46mn 34s
Bit rate mode : Constant
Bit rate : 320 Kbps
Channel(s) : 2 channels
Channel positions : Front: L R
Sampling rate : 48.0 KHz
Compression mode : Lossy
Stream size : 107 MiB (1%)
Title : ВГТРК
Language : Russian
Default : No
Forced : No
Audio #4
ID : 5
Format : DTS
Format/Info : Digital Theater Systems
Format profile : MA / Core
Mode : 16
Format settings, Endianness : Big
Codec ID : A_DTS
Duration : 46mn 34s
Bit rate mode : Variable
Bit rate : Unknown / 1 509 Kbps
Channel(s) : 6 channels
Channel positions : Front: L C R, Side: L R, LFE
Sampling rate : 48.0 KHz
Bit depth : 16 bits
Compression mode : Lossless / Lossy
Language : English
Default : No
Forced : No
Audio #5
ID : 6
Format : AC-3
Format/Info : Audio Coding 3
Mode extension : CM (complete main)
Format settings, Endianness : Big
Codec ID : A_AC3
Duration : 46mn 34s
Bit rate mode : Constant
Bit rate : 192 Kbps
Channel(s) : 2 channels
Channel positions : Front: L R
Sampling rate : 48.0 KHz
Compression mode : Lossy
Stream size : 64.0 MiB (1%)
Language : English
Default : No
Forced : No
Text #1
ID : 7
Format : UTF-8
Codec ID : S_TEXT/UTF8
Codec ID/Info : UTF-8 Plain Text
Language : Russian
Default : No
Forced : No
Text #2
ID : 8
Format : PGS
Muxing mode : zlib
Codec ID : S_HDMV/PGS
Codec ID/Info : Picture based subtitle format used on BDs/HD-DVDs
Language : English
Default : No
Forced : No
Menu
00:00:00.000 : en:00:00:00.000
00:02:08.880 : en:00:02:08.880
00:06:44.480 : en:00:06:44.480
00:12:01.720 : en:00:12:01.720
00:16:17.440 : en:00:16:17.440
00:21:52.120 : en:00:21:52.120
00:24:30.920 : en:00:24:30.920
00:28:30.720 : en:00:28:30.720
00:34:37.360 : en:00:34:37.360
00:40:07.120 : en:00:40:07.120
00:42:24.480 : en:00:42:24.480
00:46:04.120 : en:00:46:04.120

Скриншоты:

Релиз от: Stiles
[Профиль] [ЛС]
Кто просматривает тему:

Форум Тема Автор Размер
Разная литература Александр Кондрашов | Доктор Борменталь. 8 уроков сжигания жира (2015) [FB2, RTF] достали все 10 MB
Фильмы 2015 года Воздух / Air (Кристиан Кантамесса / Christian Cantamessa) [2015, США, фантастика, триллер, WEB-DLRip] VO (Хихикающий доктор) TorrentFilm 1.37 GB
Фильмы 2014 года Волк-полицейский / WolfCop (Лоуелл Дин / Lowell Dean) [2014, Канада, Ужасы, комедия, HDRip] VO (Хихикающий доктор) + Original Eng TorrentFilm 1.38 GB
Фильмы 2009 года Воображариум доктора Парнаса / The Imaginarium of Doctor Parnassus (Терри Гиллиам / Terry Gilliam) [2009, Великобритания, Канада, Франция, фэнтези, детектив, приключения, BDRip] AVO (Гаврилов) TorrentFilm 1.46 GB
Фильмы (HD Rips | 720p, 1080p) Джеймс Бонд. Агент 007: Доктор Ноу / James Bond: Dr. No (1962) BDRip 1080p sergej644 7.76 GB
R.G.TorrentFilm Video Дикие лошади / Wild Horses (Роберт Дювалл / Robert Duvall) [2015, США, Драма, криминал, HDRip] VO (Хихикающий доктор) Один 777 745 MB
Фильмы (DVD 5/9) Доктор (Владимир Панков) [2012, Россия, драма, DVD5] R5 Original Rus TorrentFilm 3.97 GB
Отечественные мультфильмы Доктор Айболит (Давид Черкасский) [1984-1985 гг, мультфильм, анимация, DVB] TorrentFilm 1.74 GB
Показать сообщения:    

Текущее время: Сегодня 08:20

Часовой пояс: GMT



Вы не можете начинать темы
Вы не можете отвечать на сообщения
Вы не можете редактировать свои сообщения
Вы не можете удалять свои сообщения
Вы не можете голосовать в опросах
Вы не можете прикреплять файлы к сообщениям
Вы не можете скачивать файлы