Доктор Кто: День Доктора в 3Д / Doctor Who: The Day of the Doctor 3D (Ник Харран / Nick Hurran) [2013, Фантастика, Приключения, Драма, BDrip, 1080p] OverUnder / Вертикальная стереопара

 
Автор Сообщение

TorrentFilm ®

Пол:

Стаж: 2 года

Сообщений: 7741



Награды: Нет

Торрент-статистика

Создавать темы 04-Янв-2016 00:02

[Цитировать]

Доктор Кто: День Доктора / Doctor Who: The Day of the Doctor
Год выпуска: 2013
Страна: Великобритания
Студия: BBC
Жанр: Фантастика, Приключения, Драма
Продолжительность: 01:19:54
Перевод: Профессиональный (многоголосый закадровый)
Русские субтитры: нет
Режиссер на русском: Ник Харран
Режиссер на английском: Nick Hurran
В ролях: Мэтт Смит, Дэвид Теннант, Дженна Коулман, Билли Пайпер, Джон Херт, Джемма Редгрейв, Джоанна Пейдж, Ингрид Оливер
Описание: Юбилейный спец выпуск после седьмого сезона британского фантастического сериала «Доктор Кто», посвящён 50-летию сериала.
В 2013 году что-то ужасное пробуждается в Национальной галерее Лондона; в 1562 году смертельный заговор зреет в елизаветинской Англии; а где-то в космосе многовековая битва достигает сокрушительного заключения.
Сэмпл: http://www.sendspace.com/file/qdu8az
Качество: BDrip
Контейнер: MKV
Формат 3D: OverUnder / Вертикальная стереопара
Порядок ракурсов: левый ракурс первый
Видео кодек: x264
Аудио кодек: AC3
Видео: AVC / High@L5.0 / 23,976 fps / 1920х2160 / 33,7 Мбит/сек
Аудио: Русский / AC3 / 48 KHz / 2 ch / 192 Kbps (MVO - ВГТРК) Edit by Ash61
Аудио 2: Русский / AC3 / 48 KHz / 2 ch / 192 Kbps (MVO - БайбаКо) Edit by Ash61
Аудио 3: Английский / AC3 / 48 KHz / 5.1 ch / 640 Кбит/сек
Релиз группы: ВНИМАНИЕ ! На встроенных ТВ-плеерах работать не будет!!!
Железные плееры на которых воспроизводятся полные стереопары:Popcorn C-200 , Dune HD Smart D1 , Dune HD DUO , Dune HD Smart H1 , Dune HD Smart B1 , Dune HD Max , Dune HD TV-303D , Dune HD Base 3D , Dune HD TV-301

MediaInfo

Общее
Уникальный идентификатор : 204599187627690542209482345199151565210 (0x99EC5EC5C05CE763BF4BB0EB17EF499A)
Полное имя : E:\закачки\Doctor Who The Day of the Doctor.Rip by SeRoGa00.mkv
Формат : Matroska
Версия формата : Version 2
Размер файла : 19,8 Гбайт
Продолжительность : 1 ч. 19 м.
Общий поток : 35,5 Мбит/сек
Дата кодирования : UTC 2013-12-30 07:56:29
Программа кодирования : mkvmerge v3.4.0 ('Rapunzel') сборка от May 15 2010 09:38:20
Библиотека кодирования : libebml v0.8.0 + libmatroska v0.9.0
Видео
Идентификатор : 1
Формат : AVC
Формат/Информация : Advanced Video Codec
Профиль формата : High@L5.0
Параметр CABAC формата : Да
Параметр ReFrames формата : 4 кадра
Идентификатор кодека : V_MPEG4/ISO/AVC
Продолжительность : 1 ч. 19 м.
Битрейт : 33,7 Мбит/сек
Ширина : 1920 пикселей
Высота : 2160 пикселей
Соотношение сторон : 0,889
Частота кадров : 23,976 кадра/сек
Цветовое пространство : YUV
Субдискретизация насыщенности : 4:2:0
Битовая глубина : 8 бит
Тип развёртки : Прогрессивная
Бит/(Пиксели*Кадры) : 0.339
Размер потока : 18,8 Гбайт (95%)
Заголовок : Rip by SeRoGa00
Библиотека кодирования : x264 core 138 r2356 a1d3d17
Настройки программы : cabac=1 / ref=4 / deblock=1:-3:-3 / analyse=0x3:0x113 / me=umh / subme=9 / psy=1 / psy_rd=1.00:0.15 / mixed_ref=1 / me_range=24 / chroma_me=1 / trellis=2 / 8x8dct=1 / cqm=0 / deadzone=21,11 / fast_pskip=1 / chroma_qp_offset=-3 / threads=9 / lookahead_threads=1 / sliced_threads=0 / nr=0 / decimate=1 / interlaced=0 / bluray_compat=0 / constrained_intra=0 / bframes=8 / b_pyramid=2 / b_adapt=2 / b_bias=0 / direct=3 / weightb=1 / open_gop=0 / weightp=2 / keyint=250 / keyint_min=23 / scenecut=40 / intra_refresh=0 / rc_lookahead=60 / rc=crf / mbtree=1 / crf=18.0 / qcomp=0.60 / qpmin=10 / qpmax=69 / qpstep=4 / vbv_maxrate=40000 / vbv_bufsize=40000 / crf_max=0.0 / nal_hrd=none / ip_ratio=1.40 / aq=1:1.00
Язык : English
Аудио #1
Идентификатор : 2
Формат : AC-3
Формат/Информация : Audio Coding 3
Расширение режима : CM (complete main)
Идентификатор кодека : A_AC3
Продолжительность : 1 ч. 19 м.
Вид битрейта : Постоянный
Битрейт : 192 Кбит/сек
Каналы : 2 канала
Расположение каналов : Front: L R
Частота : 48,0 КГц
Битовая глубина : 16 бит
Метод сжатия : С потерями
Размер потока : 110 Мбайт (1%)
Заголовок : MVO - ВГТРК
Аудио #2
Идентификатор : 3
Формат : AC-3
Формат/Информация : Audio Coding 3
Расширение режима : CM (complete main)
Идентификатор кодека : A_AC3
Продолжительность : 1 ч. 19 м.
Вид битрейта : Постоянный
Битрейт : 192 Кбит/сек
Каналы : 2 канала
Расположение каналов : Front: L R
Частота : 48,0 КГц
Битовая глубина : 16 бит
Метод сжатия : С потерями
Размер потока : 110 Мбайт (1%)
Заголовок : MVO - БайбаКо
Аудио #3
Идентификатор : 4
Формат : AC-3
Формат/Информация : Audio Coding 3
Расширение режима : CM (complete main)
Идентификатор кодека : A_AC3
Продолжительность : 1 ч. 19 м.
Вид битрейта : Постоянный
Битрейт : 640 Кбит/сек
Каналы : 6 каналов
Расположение каналов : Front: L C R, Side: L R, LFE
Частота : 48,0 КГц
Битовая глубина : 16 бит
Метод сжатия : С потерями
Размер потока : 366 Мбайт (2%)
Язык : English

Скриншоты


[Профиль] [ЛС]
Кто просматривает тему:

Форум Тема Автор Размер
Разная литература Александр Кондрашов | Доктор Борменталь. 8 уроков сжигания жира (2015) [FB2, RTF] достали все 10 MB
Фильмы 2015 года Воздух / Air (Кристиан Кантамесса / Christian Cantamessa) [2015, США, фантастика, триллер, WEB-DLRip] VO (Хихикающий доктор) TorrentFilm 1.37 GB
Фильмы 2014 года Волк-полицейский / WolfCop (Лоуелл Дин / Lowell Dean) [2014, Канада, Ужасы, комедия, HDRip] VO (Хихикающий доктор) + Original Eng TorrentFilm 1.38 GB
Фильмы 2009 года Воображариум доктора Парнаса / The Imaginarium of Doctor Parnassus (Терри Гиллиам / Terry Gilliam) [2009, Великобритания, Канада, Франция, фэнтези, детектив, приключения, BDRip] AVO (Гаврилов) TorrentFilm 1.46 GB
Фильмы (HD Rips | 720p, 1080p) Джеймс Бонд. Агент 007: Доктор Ноу / James Bond: Dr. No (1962) BDRip 1080p sergej644 7.76 GB
R.G.TorrentFilm Video Дикие лошади / Wild Horses (Роберт Дювалл / Robert Duvall) [2015, США, Драма, криминал, HDRip] VO (Хихикающий доктор) Один 777 745 MB
Фильмы (DVD 5/9) Доктор (Владимир Панков) [2012, Россия, драма, DVD5] R5 Original Rus TorrentFilm 3.97 GB
Отечественные мультфильмы Доктор Айболит (Давид Черкасский) [1984-1985 гг, мультфильм, анимация, DVB] TorrentFilm 1.74 GB
Показать сообщения:    

Текущее время: Сегодня 17:42

Часовой пояс: GMT



Вы не можете начинать темы
Вы не можете отвечать на сообщения
Вы не можете редактировать свои сообщения
Вы не можете удалять свои сообщения
Вы не можете голосовать в опросах
Вы не можете прикреплять файлы к сообщениям
Вы не можете скачивать файлы