Доктор Айболит (Давид Черкасский) [1984-1985 гг, мультфильм, анимация, DVB]

 
Автор Сообщение

TorrentFilm ®

Пол:

Стаж: 2 года

Сообщений: 7741



Награды: Нет

Торрент-статистика

Создавать темы 03-Янв-2016 00:05

[Цитировать]

Доктор Айболит
Жанр: мультфильм, анимация
Год выпуска: 1984-1985
Продолжительность: 01:08:18
Режиссёр: Давид Черкасский
Описание: Доктор Айболит вместе со своими друзьями-животными переживает самые невероятные приключения. Озорной, веселый мультипликационный сериал, с пиратами и погонями, песнями и танцами ...
1. "Доктор Айболит и его звери. 1 серия" 1984г
2. "Бармалей и морские пираты. 2 серия" 1984г.
3. "Варвара – злая сестра Айболита. 3 серия" 1984г.
4. "Коварный план Бармалея. 4 серия" 1985г.
5. "Айболит спешит на помощь. 5 серия" 1985г.
6. "Крокодил и солнце. 6 серия" 1985г.
7. "Спасибо, доктор! 7 серия" 1985г.
Доп. информация: мультильм снят по мотивам произведений Корнея Чуковского

Релиз группы:
Качество видео: DVB
Формат видео: MPEG-PS
Видео: MPEG2 Video, 720x576, 25 fps, 3500 kbps
Аудио: MPEG Audio, 2 сh, 48 kHz, 192 kbps
Трансляция спутникового канала: "Карусель"

MediaInfo

D:\Доктор Айболит\01. Доктор Айболит и его звери. (1984)_DVB by SLuMeP.mpg
General
Complete name : D:\Доктор Айболит\01. Доктор Айболит и его звери. (1984)_DVB by SLuMeP.mpg
Format : MPEG-PS
File size : 257 MiB
Duration : 9mn 39s
Overall bit rate mode : Variable
Overall bit rate : 3 725 Kbps
Writing library : (c) 1998-2010 Womble Multimedia, Inc. / MPEG Video Wizard DVD 5.0.0.114 (01/2010) / Apr 20 2010
Video #224
ID : 224 (0xE0)
Format : MPEG Video
Format version : Version 2
Format profile : Main@Main
Format settings, BVOP : Yes
Format settings, Matrix : Custom
Format settings, GOP : M=3, N=12
Duration : 9mn 39s
Bit rate mode : Variable
Bit rate : 3 459 Kbps
Maximum bit rate : 5 000 Kbps
Width : 720 pixels
Height : 576 pixels
Display aspect ratio : 4:3
Frame rate : 25.000 fps
Standard : PAL
Color space : YUV
Chroma subsampling : 4:2:0
Bit depth : 8 bits
Scan type : Interlaced
Scan order : Top Field First
Compression mode : Lossy
Bits/(Pixel*Frame) : 0.334
Stream size : 239 MiB (93%)
Writing library : (c) 1998-2010 Womble Multimedia, Inc. / MPEG Video Wizard DVD 5.0.0.114 (01/2010) / Apr 20 2010
Audio #192
ID : 192 (0xC0)
Format : MPEG Audio
Format version : Version 1
Format profile : Layer 2
Duration : 9mn 39s
Bit rate mode : Constant
Bit rate : 192 Kbps
Channel(s) : 2 channels
Sampling rate : 48.0 KHz
Compression mode : Lossy
Stream size : 13.3 MiB (5%)
Menu

Скриншоты

[Профиль] [ЛС]
Кто просматривает тему:

Форум Тема Автор Размер
Разная литература Александр Кондрашов | Доктор Борменталь. 8 уроков сжигания жира (2015) [FB2, RTF] достали все 10 MB
Фильмы 2015 года Воздух / Air (Кристиан Кантамесса / Christian Cantamessa) [2015, США, фантастика, триллер, WEB-DLRip] VO (Хихикающий доктор) TorrentFilm 1.37 GB
Фильмы 2014 года Волк-полицейский / WolfCop (Лоуелл Дин / Lowell Dean) [2014, Канада, Ужасы, комедия, HDRip] VO (Хихикающий доктор) + Original Eng TorrentFilm 1.38 GB
Фильмы 2009 года Воображариум доктора Парнаса / The Imaginarium of Doctor Parnassus (Терри Гиллиам / Terry Gilliam) [2009, Великобритания, Канада, Франция, фэнтези, детектив, приключения, BDRip] AVO (Гаврилов) TorrentFilm 1.46 GB
Фильмы (HD Rips | 720p, 1080p) Джеймс Бонд. Агент 007: Доктор Ноу / James Bond: Dr. No (1962) BDRip 1080p sergej644 7.76 GB
R.G.TorrentFilm Video Дикие лошади / Wild Horses (Роберт Дювалл / Robert Duvall) [2015, США, Драма, криминал, HDRip] VO (Хихикающий доктор) Один 777 745 MB
Фильмы (DVD 5/9) Доктор (Владимир Панков) [2012, Россия, драма, DVD5] R5 Original Rus TorrentFilm 3.97 GB
Зарубежные сериалы Доктор Кто / Doctor Who [S01-08] (2005-2014) DVDRip | P, P2, L Russian Mafia 23.88 GB
Показать сообщения:    

Текущее время: Сегодня 10:47

Часовой пояс: GMT



Вы не можете начинать темы
Вы не можете отвечать на сообщения
Вы не можете редактировать свои сообщения
Вы не можете удалять свои сообщения
Вы не можете голосовать в опросах
Вы не можете прикреплять файлы к сообщениям
Вы не можете скачивать файлы