Доказательство / Proof [S01] (2015) HDTVRip 1080p | Etvox Film

 
Автор Сообщение

достали все ®

Пол:

Стаж: 1 год 8 месяцев

Сообщений: 6563



Награды: 12 (Подробнее)

Mega Seeder 5 (Количество: 1) Mega Releaser 3 (Количество: 1) Top Releaser 4 (Количество: 1)
Торрент-статистика

Создавать темы 31-Окт-2015 04:36

[Цитировать]

Информация о фильме
Название: Доказательство
Оригинальное название: Proof
Год выхода: 2015
Жанр: драма
Режиссер: Алекс Грейвз
В ролях: Джо Мортон, Дженнифер Билз, Эди Гатеги, Каллум Блу, Кэролайн Роуз Каплан, Мэттью Модайн, Энни Турман, Дэвид Сатклифф, Констанс Эджума, Габриель Роз...
О фильме: История о женщине-хирурге по имени Кэтрин. Один миллиардер уговаривает ее заняться исследованием случаев реинкарнации, клинической смерти и призраков — все это, чтобы ответить на один вопрос: смерть — это действительно конец, или есть еще что-то после нее?

Страна: США
Продолжительность: ~00:43:00
Перевод: Любительский (многоголосый закадровый) Etvox Film
Субтитры: Отсутствуют
Файл
Контейнер: MKV
Качество: HDTVRip 1080p
Видео: x264, 1920x1080 (16:9), 23,976 fps, 6 700 Kbps
Аудио RUS: MP3, 44.1 KHz, 2ch, 256 Kbps
Аудио ENG: MP3, 44.1 KHz, 2ch, 256 Kbps
Релиз группа:

MediaInfo

General
Format : Matroska
Format version : Version 4 / Version 2
File size : 2.02 GiB
Duration : 43mn 22s
Overall bit rate : 6 655 Kbps
Encoded date : UTC 2015-07-26 12:04:34
Writing application : mkvmerge v7.6.0 ('Garden of Dreams') 64bit built on Feb 8 2015 13:04:34
Writing library : libebml v1.3.1 + libmatroska v1.4.2
DURATION : 00:43:22.350000000
NUMBER_OF_FRAMES : 62394
NUMBER_OF_BYTES : 1997572763
_STATISTICS_WRITING_APP : mkvmerge v7.6.0 ('Garden of Dreams') 64bit built on Feb 8 2015 13:04:34
_STATISTICS_WRITING_DATE_UTC : 2015-07-26 12:04:34
_STATISTICS_TAGS : BPS DURATION NUMBER_OF_FRAMES NUMBER_OF_BYTES
Video
ID : 1
Format : AVC
Format/Info : Advanced Video Codec
Format profile : High@L4.0
Format settings, CABAC : Yes
Format settings, ReFrames : 3 frames
Codec ID : V_MPEG4/ISO/AVC
Duration : 43mn 22s
Bit rate : 6 200 Kbps
Width : 1 920 pixels
Height : 1 080 pixels
Display aspect ratio : 16:9
Frame rate mode : Constant
Frame rate : 23.976 fps
Color space : YUV
Chroma subsampling : 4:2:0
Bit depth : 8 bits
Scan type : Progressive
Bits/(Pixel*Frame) : 0.125
Stream size : 1.82 GiB (90%)
Title : Доказательство (Proof) 1 сезон, 1 серия - Pilot [Etvox Film]
Writing library : x264 core 146 r2538bm 121396c
Encoding settings : cabac=1 / ref=3 / deblock=1:0:0 / analyse=0x3:0x113 / me=hex / subme=7 / psy=1 / psy_rd=1.00:0.00 / mixed_ref=1 / me_range=16 / chroma_me=1 / trellis=1 / 8x8dct=1 / cqm=0 / deadzone=21,11 / fast_pskip=1 / chroma_qp_offset=-2 / threads=4 / lookahead_threads=4 / sliced_threads=1 / slices=4 / nr=0 / decimate=1 / interlaced=0 / bluray_compat=0 / constrained_intra=0 / bframes=0 / weightp=2 / keyint=250 / keyint_min=23 / scenecut=40 / intra_refresh=0 / rc=abr / mbtree=0 / bitrate=6200 / ratetol=1.0 / qcomp=0.60 / qpmin=0 / qpmax=69 / qpstep=4 / ip_ratio=1.40 / aq=1:1.00
Default : Yes
Forced : No
Audio #1
ID : 2
Format : MPEG Audio
Format version : Version 1
Format profile : Layer 3
Codec ID : A_MPEG/L3
Codec ID/Hint : MP3
Duration : 43mn 22s
Bit rate mode : Constant
Bit rate : 256 Kbps
Channel(s) : 2 channels
Sampling rate : 44.1 KHz
Compression mode : Lossy
Stream size : 79.4 MiB (4%)
Title : RUS (Etvox Film)
Language : Russian
Default : Yes
Forced : No
Audio #2
ID : 3
Format : MPEG Audio
Format version : Version 1
Format profile : Layer 3
Codec ID : A_MPEG/L3
Codec ID/Hint : MP3
Duration : 43mn 22s
Bit rate mode : Constant
Bit rate : 256 Kbps
Channel(s) : 2 channels
Sampling rate : 44.1 KHz
Compression mode : Lossy
Stream size : 79.4 MiB (4%)
Title : ENG (Original)
Language : English
Default : No
Forced : No

Скриншоты

[Профиль] [ЛС]
Показать сообщения:    

Текущее время: Сегодня 08:31

Часовой пояс: GMT



Вы не можете начинать темы
Вы не можете отвечать на сообщения
Вы не можете редактировать свои сообщения
Вы не можете удалять свои сообщения
Вы не можете голосовать в опросах
Вы не можете прикреплять файлы к сообщениям
Вы не можете скачивать файлы