Доверие / The Trust (2016) BDRemux 1080p | L

 
Автор Сообщение

Russian Mafia ®

Пол:

Стаж: 1 год 8 месяцев

Сообщений: 4257



Награды: 10 (Подробнее)

Top Releaser 4 (Количество: 1) Top Releaser 5 (Количество: 1) Mega Seeder 4 (Количество: 1)
Торрент-статистика

Создавать темы 10-Апр-2016 12:01

[Цитировать]

Информация о фильме
Название: Доверие
Оригинальное название: The Trust
Год выхода: 2016
Жанр: триллер, криминал
Режиссер: Бенжамин Брюэр
В ролях: Николас Кейдж, Элайджа Вуд, Джерри Льюис, Стивен Уильямс, Скай Феррейра, Кевин Уайзман, Лиза Гарднер, Кристи Беран, Джеффри Ховард, Томми Вегас
О фильме:
Парочка коррумпированных полицейских в отделе улик обнаруживает сейф с нарко-деньгами. Решив похитить тайник, они не подозревают, что вступают в игру за собственные жизни.
Страна: Великобритания
Студия: Electric Shadow Company, The ; Hassell Free Production, Highland Film Group (HFG), Ingenious Media, Prettybird, Saban Films, Saeculum Productions
Продолжительность: 01:32:43
Перевод: Любительский многоголосый (закадровый)
Файл
Кодек: MPEG-4
Качество: BDRemux 1080p
Видео: 1920x1080, 35.0 Mbit/s, 23.976 fps
Звук:
Аудио #1: 48.0 Khz, AC3, 2.0, 192 Kbps | Любительский многоголосый (закадровый), Parovoz Production | RUS
Аудио #2: 48.0 Khz, DTS-HD MA, 5.1, 2426 Kbps | Оригинал | ENG
Релиз от:
Примечание: Без рекламы.

MI

Общее
Уникальный идентификатор : 226897773944441838323391777389512460807 (0xAAB2EBF58B09CD5BB791EE47D0D78A07)
Полное имя : E:VideoThe.Trust.2016.BDREMUX.1080p (S).mkv
Формат : Matroska
Версия формата : Version 4 / Version 2
Размер файла : 23,4 Гбайт
Продолжительность : 1 ч. 31 м.
Общий поток : 36,5 Мбит/сек
Название фильма : The.Trust.2016.BDREMUX.1080p (S)
Дата кодирования : UTC 2016-04-09 22:54:27
Программа кодирования : mkvmerge v8.3.0 ('Over the Horizon') 64bit
Библиотека кодирования : libebml v1.3.1 + libmatroska v1.4.2
Обложка : Yes
Attachments : cover_land.jpg / small_cover.jpg / small_cover_land.jpg / cover.jpg
Видео
Идентификатор : 1
Формат : AVC
Формат/Информация : Advanced Video Codec
Профиль формата : High@L4.1
Параметр CABAC формата : Да
Параметр ReFrames формата : 4 кадра
Идентификатор кодека : V_MPEG4/ISO/AVC
Продолжительность : 1 ч. 31 м.
Вид битрейта : Постоянный
Битрейт : 35,0 Мбит/сек
Ширина : 1920 пикселей
Высота : 1080 пикселей
Соотношение сторон : 16:9
Режим частоты кадров : Постоянный
Частота кадров : 23,976 (24000/1001) кадра/сек
Стандарт вещания : NTSC
Цветовое пространство : YUV
Субдискретизация насыщенности : 4:2:0
Битовая глубина : 8 бит
Тип развёртки : Прогрессивная
Бит/(Пиксели*Кадры) : 0.704
Размер потока : 21,7 Гбайт (93%)
Язык : English
Default : Нет
Forced : Нет
Цветовой диапазон : Limited
Основные цвета : BT.709
Характеристики трансфера : BT.709
Коэффициенты матрицы : BT.709
Аудио #1
Идентификатор : 2
Формат : AC-3
Формат/Информация : Audio Coding 3
Расширение режима : CM (complete main)
Параметр Endianness формата : Big
Идентификатор кодека : A_AC3
Продолжительность : 1 ч. 31 м.
Вид битрейта : Постоянный
Битрейт : 192 Кбит/сек
Каналы : 2 канала
Расположение каналов : Front: L R
Частота : 48,0 КГц
Частота кадров : 31,250 кадров/сек (1536 spf)
Метод сжатия : С потерями
Размер потока : 126 Мбайт (1%)
Язык : Russian
Default : Да
Forced : Нет
Аудио #2
Идентификатор : 3
Формат : DTS
Формат/Информация : Digital Theater Systems
Профиль формата : MA / Core
Режим : 16
Параметр Endianness формата : Big
Идентификатор кодека : A_DTS
Продолжительность : 1 ч. 31 м.
Вид битрейта : Переменный / Постоянный
Битрейт : 2426 Кбит/сек / 1509 Кбит/сек
Каналы : 6 каналов
Расположение каналов : Front: L C R, Side: L R, LFE
Частота : 48,0 КГц
Частота кадров : 93,750 кадра/сек (512 spf)
Битовая глубина : 16 бит
Метод сжатия : Без потерь / Lossy
Размер потока : 1,55 Гбайт (7%)
Язык : English
Default : Нет
Forced : Нет
Текст
Идентификатор : 4
Формат : UTF-8
Идентификатор кодека : S_TEXT/UTF8
Идентификатор кодека/Информация : UTF-8 Plain Text
Продолжительность : 50 с.
Битрейт : 35 бит/сек
Count of elements : 8
Размер потока : 220 байт (0%)
Заголовок : Forced
Язык : English
Default : Нет
Forced : Нет
Меню
00:00:00.000 : en:Chapter 01
00:08:25.755 : en:Chapter 02
00:15:33.265 : en:Chapter 03
00:20:30.687 : en:Chapter 04
00:28:15.610 : en:Chapter 05
00:35:00.306 : en:Chapter 06
00:40:28.134 : en:Chapter 07
00:48:53.680 : en:Chapter 08
00:56:25.799 : en:Chapter 09
01:04:44.005 : en:Chapter 10
01:14:14.158 : en:Chapter 11
01:23:31.673 : en:Chapter 12

Скриншоты

[Профиль] [ЛС]
Показать сообщения:    

Текущее время: Сегодня 09:56

Часовой пояс: GMT



Вы не можете начинать темы
Вы не можете отвечать на сообщения
Вы не можете редактировать свои сообщения
Вы не можете удалять свои сообщения
Вы не можете голосовать в опросах
Вы не можете прикреплять файлы к сообщениям
Вы не можете скачивать файлы