Добыча / La proie (2011) BDRip 720р от ExKinoRay | L1, A

 
Автор Сообщение

sergej644 ®

Пол:

Стаж: 4 года 11 месяцев

Сообщений: 6045

Откуда: Soviet Union



Награды: Нет

Торрент-статистика

Создавать темы 08-Фев-2015 11:26

[Цитировать]

Информация о фильме
Название: Добыча
Оригинальное название: La proie
Год выхода: 2011
Жанр: Боевик
Режиссер: Эрик Валетт
В ролях: Альбер Дюпонтель, Элис Тальони, Стефан Дебак, Серхи Лопес, Наташа Ренье, Серж Азанавичюс, Зинедин Суалем, Катерина Мурино, Люсьен Жан-Баптист, Жан-Мари Винлин
О фильме:
Франк Адриан мотает срок за ограбление банка, как тут в камеру к нему подсаживают невинно обвинённого человека. На новичка наезжают уголовники, но Адриан впрягается за него. Теперь Франку предстоит опасаться братвы, да ещё и подельник наезжает, требуя слить инфу о тайнике с награбленным.

Страна: Франция, Brio Films, Studio Canal, TF1 Films Production
Продолжительность: 01:44:33
Перевод: Любительский одноголосый, авторский
Субтитры: Английские
Дата релиза: 14.09.2014
Файл
Кодек: H.264
Качество: BDRip (720р)
Видео: MPEG-4 AVC, 4379 Кбит/с, 1280x546
Звук:
Аудио №1: Русский (AC3, 6 ch, 448 Кбит/с) - Любительский одноголосый (zamez)
Аудио №2: Русский (AC3, 6 ch, 448 Кбит/с) - Авторский (Чадов)

MediaInfo

Общее
Уникальный идентификатор : 183862341456207033780650037037470885467 (0x8A529951E00B44C2882DC0E73B9CA65B)
Полное имя : D:фильмыDobycha.2011.x264.BDRip.(720p).ExKinoRay.mkv
Формат : Matroska
Размер файла : 3,85 Гбайт
Продолжительность : 1 ч. 44 м.
Общий поток : 5272 Кбит/сек
Название фильма : Dobycha.2011.x264.BDRip.(720p).ExKinoRay
Дата кодирования : UTC 2014-09-14 16:19:42
Программа кодирования : mkvmerge v4.0.0 ('The Stars were mine') сборка от Jun 6 2010 16:18:42
Библиотека кодирования : libebml v1.0.0 + libmatroska v1.0.0
Видео
Идентификатор : 1
Формат : AVC
Формат/Информация : Advanced Video Codec
Профиль формата : High@L4.1
Параметр CABAC формата : Да
Параметр ReFrames формата : 8 кадров
Идентификатор кодека : V_MPEG4/ISO/AVC
Продолжительность : 1 ч. 44 м.
Битрейт : 4379 Кбит/сек
Ширина : 1280 пикс.
Высота : 546 пикс.
Соотношение сторон : 2,35:1
Частота кадров : 24,000 кадр/сек
Цветовое пространство : YUV
Подвыборка цветности : 4:2:0
Битовая глубина : 8 бит
Тип развёртки : Прогрессивная
Бит/(Пиксели*Кадры) : 0.261
Размер потока : 3,12 Гбайт (81%)
Заголовок : Rip by Enigma-Vladislav71
Библиотека кодирования : x264 core 129 r2245 bc13772
Настройки программы : cabac=1 / ref=8 / deblock=1:-3:-3 / analyse=0x3:0x133 / me=umh / subme=11 / psy=1 / psy_rd=1.00:0.00 / mixed_ref=1 / me_range=32 / chroma_me=1 / trellis=2 / 8x8dct=1 / cqm=0 / deadzone=21,11 / fast_pskip=0 / chroma_qp_offset=-2 / threads=3 / lookahead_threads=1 / sliced_threads=0 / nr=0 / decimate=0 / interlaced=0 / bluray_compat=0 / constrained_intra=0 / bframes=8 / b_pyramid=2 / b_adapt=2 / b_bias=0 / direct=3 / weightb=1 / open_gop=0 / weightp=2 / keyint=240 / keyint_min=23 / scenecut=40 / intra_refresh=0 / rc=2pass / mbtree=0 / bitrate=4379 / ratetol=1.0 / qcomp=0.60 / qpmin=10 / qpmax=51 / qpstep=4 / cplxblur=20.0 / qblur=0.5 / ip_ratio=1.40 / pb_ratio=1.30 / aq=2:1.00
Язык : English
Аудио #1
Идентификатор : 2
Формат : AC-3
Формат/Информация : Audio Coding 3
Расширение режима : CM (complete main)
Идентификатор кодека : A_AC3
Продолжительность : 1 ч. 44 м.
Вид битрейта : Постоянный
Битрейт : 448 Кбит/сек
Каналы : 6 каналов
Расположение каналов : Front: L C R, Side: L R, LFE
Частота : 48,0 КГц
Битовая глубина : 16 бит
Метод сжатия : С потерями
Размер потока : 335 Мбайт (8%)
Заголовок : Любительский одноголосый (zamez)
Язык : Russian
Аудио #2
Идентификатор : 3
Формат : AC-3
Формат/Информация : Audio Coding 3
Расширение режима : CM (complete main)
Идентификатор кодека : A_AC3
Продолжительность : 1 ч. 44 м.
Вид битрейта : Постоянный
Битрейт : 448 Кбит/сек
Каналы : 6 каналов
Расположение каналов : Front: L C R, Side: L R, LFE
Частота : 48,0 КГц
Битовая глубина : 16 бит
Метод сжатия : С потерями
Размер потока : 335 Мбайт (8%)
Заголовок : Авторский (Чадов)
Язык : Russian
Текст
Идентификатор : 4
Формат : UTF-8
Идентификатор кодека : S_TEXT/UTF8
Идентификатор кодека/Информация : UTF-8 Plain Text
Язык : English
Меню
00:00:00.000 : en:Chapter 01
00:11:45.333 : en:Chapter 02
00:20:34.125 : en:Chapter 03
00:30:45.667 : en:Chapter 04
00:42:46.583 : en:Chapter 05
00:52:27.667 : en:Chapter 06
01:02:57.917 : en:Chapter 07
01:14:38.375 : en:Chapter 08
01:23:53.500 : en:Chapter 09
01:36:47.500 : en:Chapter 10
01:44:32.792 : en:Chapter 11

Скриншоты

[Профиль] [ЛС]
Показать сообщения:    

Текущее время: Сегодня 10:00

Часовой пояс: GMT



Вы не можете начинать темы
Вы не можете отвечать на сообщения
Вы не можете редактировать свои сообщения
Вы не можете удалять свои сообщения
Вы не можете голосовать в опросах
Вы не можете прикреплять файлы к сообщениям
Вы не можете скачивать файлы