Добро пожаловать (Алексей Караев) [1986 г., мультфильм, DVB]

 
Автор Сообщение

TorrentFilm ®

Пол:

Стаж: 1 год 11 месяцев

Сообщений: 7741



Награды: Нет

Торрент-статистика

Создавать темы 01-Янв-2016 00:15

[Цитировать]

Добро пожаловать
Жанр: мультфильм
Год выпуска: 1986
Продолжительность: 00:09:52
Режиссёр: Алексей Караев
Описание: мультфильм о добром лосе, который разрешил поселиться на своих рогах чуть ли не всем обитателям леса ...
Доп. информация: по мотивам сказки Доктора Сьюза (Теодор Сьюз Гейзель)

Трансляция спутникового канала: "Карусель"
Качество видео: DVB
Формат видео: MPEG-PS
Видео: MPEG2 Video, 720x576, 25 fps, 3500 kbps
Аудио: MPEG Audio, 2 сh, 48 kHz, 192 kbps

MediaInfo

General
Complete name : D:\Добро пожаловать. (1986)_DVB by SLuMeP.mpg
Format : MPEG-PS
File size : 264 MiB
Duration : 9mn 52s
Overall bit rate mode : Variable
Overall bit rate : 3 739 Kbps
Video
ID : 224 (0xE0)
Format : MPEG Video
Format version : Version 2
Format profile : Main@Main
Format settings, BVOP : Yes
Format settings, Matrix : Custom
Format settings, GOP : M=3, N=12
Duration : 9mn 52s
Bit rate mode : Variable
Bit rate : 3 472 Kbps
Maximum bit rate : 5 000 Kbps
Width : 720 pixels
Height : 576 pixels
Display aspect ratio : 4:3
Frame rate : 25.000 fps
Standard : PAL
Color space : YUV
Chroma subsampling : 4:2:0
Bit depth : 8 bits
Scan type : Interlaced
Scan order : Top Field First
Compression mode : Lossy
Bits/(Pixel*Frame) : 0.335
Time code of first frame : 00:00:00:00
Time code source : Group of pictures header
Stream size : 245 MiB (93%)
Audio
ID : 192 (0xC0)
Format : MPEG Audio
Format version : Version 1
Format profile : Layer 2
Duration : 9mn 52s
Bit rate mode : Constant
Bit rate : 192 Kbps
Channel(s) : 2 channels
Sampling rate : 48.0 KHz
Compression mode : Lossy
Stream size : 13.6 MiB (5%)

Скриншоты

[Профиль] [ЛС]
Кто просматривает тему:

Форум Тема Автор Размер
Компьютерная литература (Программирование) Microsoft - Добро пожаловать в Windows 7 (Руководство по продукту Windows 7) [2010, PDF, RUS] TorrentFilm 71 MB
Фильмы (HD Rips | 720p, 1080p) Белые росы (Игорь Добролюбов) [1983, СССР, комедия, HDTV 1080i] TorrentFilm 5.55 GB
Кино СССР Белые росы (Игорь Добролюбов) [1983, СССР, Психологическая драма, лирическая комедия, DVD5] [Магнат] sergej644 3.93 GB
Фильмы (DVD 5/9) Белые Росы (Игорь Добролюбов) [1984, СССР, лирическая комедия, DVD5] Sub Rus TorrentFilm 3.8 GB
Кино СССР Белые Росы (Игорь Добролюбов)[1983, Лирическая комедия, DVDRip] sergej644 1.37 GB
Документальные HD Владимир Зельдин: Кумир Века (Глеб Добровольский) [2015, Документальный, HDTV 720p] TorrentFilm 1.3 GB
Фильмы 2015 года Вымирание / Добро пожаловать в гармонию / Extinction (Мигель Анхель Вивас / Miguel Ángel Vivas) [2015, Испания, Франция, США, Венгрия, ужасы, фантастика, драма, WEB-DLRip] DVO (2D) TorrentFilm 1.44 GB
Фильмы 2015 года Вымирание / Добро пожаловать в Гармонию / Extinction (Мигель Анхель Вивас) [2015, ужасы, фантастика, драма] WEB-DLRip | iTunes BOSS 1.45 GB
Показать сообщения:    

Текущее время: Сегодня 15:59

Часовой пояс: GMT



Вы не можете начинать темы
Вы не можете отвечать на сообщения
Вы не можете редактировать свои сообщения
Вы не можете удалять свои сообщения
Вы не можете голосовать в опросах
Вы не можете прикреплять файлы к сообщениям
Вы не можете скачивать файлы