Добро пожаловать домой, Роско Дженкинс / Welcome Home, Roscoe Jenkins (Малкольм Д. Ли / Malcolm D. Lee) [2008, США, Комедия, WEB-DLRip] MVO

 
Автор Сообщение

TorrentFilm ®

Пол:

Стаж: 2 года

Сообщений: 7741



Награды: Нет

Торрент-статистика

Создавать темы 26-Дек-2014 02:00

[Цитировать]

Добро пожаловать домой, Роско Дженкинс / Welcome Home, Roscoe Jenkins«Поездка домой - совсем не отдых!»- Страна: США
Жанр: Комедия
Год выпуска: 2008
Продолжительность: 01:53:53-Перевод: Профессиональный (многоголосый закадровый) [R5]
Cубтитры: нет-Режиссер: Малкольм Д. Ли / Malcolm D. Lee-В ролях: Мартин Лоуренс, Джеймс Эрл Джонс, Маргарет Эйвери, Джой Брайант, Николь Ари Паркер, Майкл Кларк Дункан, Майк Эппс, Моник, Дамани Робертс-Описание: Отец-одиночка становится ведущим рейтингового ток-шоу и в мгновение ока его жизнь превращается в сказку — платиновая кредитная карточка, звезда-невеста. Однако, когда он возвращается в семейное гнездо на 50-летнюю годовщину свадьбы своих родителей, его новые ценности не выдерживают испытания.-Sample | IMDB | КиноПоиск-Тип релиза: WEB-DLRip [исх. WEB-DL 1080p]
Формат видео: AVI-Видео: 720x384 (1.88:1), 23.976 fps, XviD build 50, 1448 kbps avg, 0.22 bit/pixel
Аудио: 48 kHz, AC3 Dolby Digital, 3/2 (L,C,R,l,r) + LFE ch, 384.00 kbps avg [Russian_MVO]-Релиз группы: -

Сравнение скриншотов

http://torrentfilm.net/forum/viewtopic.php?t=1199555
http://screenshotcomparison.com/comparison/103727/picture:2
Перевод одинаковый-http://torrentfilm.net/forum/viewtopic.php?t=917993
Любительская озвучка

MediaInfo

General
Complete name : D:\Мои релизы\Welcome Home RJ_WEB-DLRip_RG_All_Films.avi
Format : AVI
Format/Info : Audio Video Interleave
File size : 1.47 GiB
Duration : 1h 53mn
Overall bit rate : 1 842 Kbps
Writing application : VirtualDubMod 1.5.10.3 | www.virtualdub-fr.org || (build 2550/release)
Writing library : VirtualDubMod build 2550/release
Video
ID : 0
Format : MPEG-4 Visual
Format profile : Advanced Simple@L5
Format settings, BVOP : Yes
Format settings, QPel : No
Format settings, GMC : No warppoints
Format settings, Matrix : Custom
Codec ID : XVID
Codec ID/Hint : XviD
Duration : 1h 53mn
Bit rate : 1 449 Kbps
Width : 720 pixels
Height : 384 pixels
Display aspect ratio : 1.875
Frame rate : 23.976 fps
Color space : YUV
Chroma subsampling : 4:2:0
Bit depth : 8 bits
Scan type : Progressive
Compression mode : Lossy
Bits/(Pixel*Frame) : 0.219
Stream size : 1.15 GiB (79%)
Writing library : XviD 1.2.1 (UTC 2008-12-04)
Audio
ID : 1
Format : AC-3
Format/Info : Audio Coding 3
Mode extension : CM (complete main)
Codec ID : 2000
Duration : 1h 53mn
Bit rate mode : Constant
Bit rate : 384 Kbps
Channel(s) : 6 channels
Channel positions : Front: L C R, Side: L R, LFE
Sampling rate : 48.0 KHz
Bit depth : 16 bits
Compression mode : Lossy
Stream size : 313 MiB (21%)
Alignment : Split accross interleaves
Interleave, duration : 42 ms (1.00 video frame)
Interleave, preload duration : 500 ms

Скриншоты

[Профиль] [ЛС]

Создавать темы 06-Авг-2015 22:53 (спустя 7 месяцев 11 дней)

Топик был перенесен из форума Фильмы до 2014 года в форум Фильмы до 2012 года
sergej644
 

Создавать темы 12-Июн-2016 08:51 (спустя 1 год 5 месяцев)

Топик был перенесен из форума Фильмы 2011 года в форум Фильмы 2006-2008 года
Russian Mafia
 
Кто просматривает тему:

Форум Тема Автор Размер
Компьютерная литература (Программирование) Microsoft - Добро пожаловать в Windows 7 (Руководство по продукту Windows 7) [2010, PDF, RUS] TorrentFilm 71 MB
Фильмы (HD Rips | 720p, 1080p) Белые росы (Игорь Добролюбов) [1983, СССР, комедия, HDTV 1080i] TorrentFilm 5.55 GB
Кино СССР Белые росы (Игорь Добролюбов) [1983, СССР, Психологическая драма, лирическая комедия, DVD5] [Магнат] sergej644 3.93 GB
Фильмы (DVD 5/9) Белые Росы (Игорь Добролюбов) [1984, СССР, лирическая комедия, DVD5] Sub Rus TorrentFilm 3.8 GB
Кино СССР Белые Росы (Игорь Добролюбов)[1983, Лирическая комедия, DVDRip] sergej644 1.37 GB
Документальные HD Владимир Зельдин: Кумир Века (Глеб Добровольский) [2015, Документальный, HDTV 720p] TorrentFilm 1.3 GB
Фильмы 2015 года Вымирание / Добро пожаловать в гармонию / Extinction (Мигель Анхель Вивас / Miguel Ángel Vivas) [2015, Испания, Франция, США, Венгрия, ужасы, фантастика, драма, WEB-DLRip] DVO (2D) TorrentFilm 1.44 GB
Фильмы 2015 года Вымирание / Добро пожаловать в Гармонию / Extinction (Мигель Анхель Вивас) [2015, ужасы, фантастика, драма] WEB-DLRip | iTunes BOSS 1.45 GB
Показать сообщения:    

Текущее время: Сегодня 01:21

Часовой пояс: GMT



Вы не можете начинать темы
Вы не можете отвечать на сообщения
Вы не можете редактировать свои сообщения
Вы не можете удалять свои сообщения
Вы не можете голосовать в опросах
Вы не можете прикреплять файлы к сообщениям
Вы не можете скачивать файлы