Добро пожаловать в Zомбилэнд / Zombieland (Рубен Флейшер) [2009 г., ужасы, комедия, BDRip] [1080p] [DUB] + 2x[AVO (Ю.Сербин, М.Чадов)]

 
Автор Сообщение

Bathory ®

Пол:

Стаж: 9 месяцев 2 дня

Сообщений: 169



Награды: 3 (Подробнее)

Girls (Количество: 1) Друг (Количество: 1) За внесенный вклад в развитие сайта (Количество: 1)
Торрент-статистика

Создавать темы 08-Мар-2016 13:54

[Цитировать]

Добро пожаловать в Zомбилэнд / Zombieland- Название: Добро пожаловать в Zомбилэнд
Оригинальное название: Zombieland
Год выхода: 2009
Жанр: ужасы, комедия
Режиссер: Рубен Флейшер
В ролях: Джесси Айзенберг, Вуди Харрельсон, Эмма Стоун, Эбигейл Бреслин, Билл Мюррей, Эмбер Хёрд, Дерек Граф, Сизар Агирр, Джейкоб Дж. Экинс, Хантер Элдридж
О фильме:
После нашествия зомби в США небольшая группа выживших скитается по стране от побережья к побережью, сражаясь с живыми мертвецами. Они решают остановиться в парке развлечений, надеясь, что там будут в безопасности.

Страна: США
Студия: Columbia Pictures, Relativity Media, Pariah
Продолжительность: 01:27:42
Перевод:
Профессиональный дублированный
Авторский одноголосый [Ю.Сербин]
Авторский одноголосый [М.Чадов по переводу Гоблина]

Кодек: AVC
Качество: BDRip 1080p
Видео: 1920x800, 11,2 Mbps, 23,976 fps, 0,304 Bits/(Pixel*Frame)
Звук:
AC3, 48 kHz, 6 ch, 448 kbps - Профессиональный дублированный
AC3, 48 kHz, 6 ch, 448 kbps - Авторский одноголосый [Ю.Сербин]
AC3, 48 kHz, 6 ch, 448 kbps - Авторский одноголосый [М.Чадов по переводу Гоблина]
AC3, 48 kHz, 6 ch, 448 kbps - Оригинал [ENG]
Субтитры:
Русские (по дубляжу от Outlander2WD)
Английские
Русские (по переводу Гоблина)
Русские (для слабослышащих Voronine)
Русские (надписи и пр. timyrovecTM)
Русские (надписи и пр. Voronine)
Русские (Voronine)

Скриншоты

MI

General
Unique ID : 182707483351576484093278146465251606897 (0x89742E6B516B24589456633A56AE4171)
Complete name : D:Zombieland.2009.BDRip1080p_by_Bathory.mkv
Format : Matroska
Format version : Version 4 / Version 2
File size : 7.95 GiB
Duration : 1h 27mn
Overall bit rate : 13.0 Mbps
Encoded date : UTC 2014-09-08 13:03:18
Writing application : mkvmerge v7.1.0 ('Good Love') 64bit built on Jul 27 2014 13:06:55
Writing library : libebml v1.3.0 + libmatroska v1.4.1
_STATISTICS_WRITING_APP : mkvmerge v7.1.0 ('Good Love') 64bit built on Jul 27 2014 13:06:55
_STATISTICS_WRITING_DATE_UTC : 2014-09-08 13:03:18
_STATISTICS_TAGS : BPS DURATION NUMBER_OF_FRAMES NUMBER_OF_BYTES
DURATION : 01:26:56.601000000
NUMBER_OF_FRAMES : 893
NUMBER_OF_BYTES : 32188
Video
ID : 1
Format : AVC
Format/Info : Advanced Video Codec
Format profile : High@L4.1
Format settings, CABAC : Yes
Format settings, ReFrames : 4 frames
Codec ID : V_MPEG4/ISO/AVC
Duration : 1h 27mn
Bit rate : 11.2 Mbps
Width : 1 920 pixels
Height : 800 pixels
Display aspect ratio : 2.40:1
Frame rate mode : Constant
Frame rate : 23.976 fps
Color space : YUV
Chroma subsampling : 4:2:0
Bit depth : 8 bits
Scan type : Progressive
Bits/(Pixel*Frame) : 0.304
Stream size : 6.69 GiB (84%)
Writing library : x264 core 142 r2453 ea0ca51
Encoding settings : cabac=1 / ref=4 / deblock=1:-3:-2 / analyse=0x3:0x133 / me=umh / subme=11 / psy=1 / psy_rd=1.05:0.10 / mixed_ref=1 / me_range=48 / chroma_me=1 / trellis=2 / 8x8dct=1 / cqm=0 / deadzone=21,11 / fast_pskip=0 / chroma_qp_offset=-3 / threads=12 / lookahead_threads=2 / sliced_threads=0 / nr=0 / decimate=1 / interlaced=0 / bluray_compat=0 / constrained_intra=0 / bframes=8 / b_pyramid=2 / b_adapt=2 / b_bias=0 / direct=3 / weightb=1 / open_gop=0 / weightp=2 / keyint=240 / keyint_min=23 / scenecut=40 / intra_refresh=0 / rc_lookahead=60 / rc=2pass / mbtree=1 / bitrate=11186 / ratetol=1.0 / qcomp=0.60 / qpmin=0 / qpmax=69 / qpstep=4 / cplxblur=20.0 / qblur=0.5 / vbv_maxrate=62500 / vbv_bufsize=78125 / nal_hrd=none / filler=0 / ip_ratio=1.40 / aq=1:1.00
Default : Yes
Forced : No
Audio #1
ID : 2
Format : AC-3
Format/Info : Audio Coding 3
Mode extension : CM (complete main)
Format settings, Endianness : Big
Codec ID : A_AC3
Duration : 1h 27mn
Bit rate mode : Constant
Bit rate : 448 Kbps
Channel(s) : 6 channels
Channel positions : Front: L C R, Side: L R, LFE
Sampling rate : 48.0 KHz
Bit depth : 16 bits
Compression mode : Lossy
Stream size : 281 MiB (3%)
Language : Russian
Default : Yes
Forced : No
Audio #2
ID : 3
Format : AC-3
Format/Info : Audio Coding 3
Mode extension : CM (complete main)
Format settings, Endianness : Big
Codec ID : A_AC3
Duration : 1h 27mn
Bit rate mode : Constant
Bit rate : 448 Kbps
Channel(s) : 6 channels
Channel positions : Front: L C R, Side: L R, LFE
Sampling rate : 48.0 KHz
Bit depth : 16 bits
Compression mode : Lossy
Stream size : 281 MiB (3%)
Language : Russian
Default : No
Forced : No
Audio #3
ID : 4
Format : AC-3
Format/Info : Audio Coding 3
Mode extension : CM (complete main)
Format settings, Endianness : Big
Codec ID : A_AC3
Duration : 1h 27mn
Bit rate mode : Constant
Bit rate : 448 Kbps
Channel(s) : 6 channels
Channel positions : Front: L C R, Side: L R, LFE
Sampling rate : 48.0 KHz
Bit depth : 16 bits
Compression mode : Lossy
Stream size : 281 MiB (3%)
Language : Russian
Default : No
Forced : No
Audio #4
ID : 5
Format : AC-3
Format/Info : Audio Coding 3
Mode extension : CM (complete main)
Format settings, Endianness : Big
Codec ID : A_AC3
Duration : 1h 27mn
Bit rate mode : Constant
Bit rate : 448 Kbps
Channel(s) : 6 channels
Channel positions : Front: L C R, Side: L R, LFE
Sampling rate : 48.0 KHz
Bit depth : 16 bits
Compression mode : Lossy
Stream size : 281 MiB (3%)
Language : English
Default : No
Forced : No
Text #1
ID : 6
Format : UTF-8
Codec ID : S_TEXT/UTF8
Codec ID/Info : UTF-8 Plain Text
Title : Русские (по дубляжу от Outlander2WD)
Language : Russian
Default : Yes
Forced : No
Text #2
ID : 7
Format : UTF-8
Codec ID : S_TEXT/UTF8
Codec ID/Info : UTF-8 Plain Text
Title : Английские
Language : English
Default : No
Forced : No
Text #3
ID : 8
Format : UTF-8
Codec ID : S_TEXT/UTF8
Codec ID/Info : UTF-8 Plain Text
Title : Русские (по переводу Гоблина)
Language : Russian
Default : No
Forced : No
Text #4
ID : 9
Format : UTF-8
Codec ID : S_TEXT/UTF8
Codec ID/Info : UTF-8 Plain Text
Title : Русские (для слабослышащих Voronine)
Language : Russian
Default : No
Forced : No
Text #5
ID : 10
Format : UTF-8
Codec ID : S_TEXT/UTF8
Codec ID/Info : UTF-8 Plain Text
Title : русские (надписи и пр. timyrovecTM)
Language : Russian
Default : No
Forced : No
Text #6
ID : 11
Format : UTF-8
Codec ID : S_TEXT/UTF8
Codec ID/Info : UTF-8 Plain Text
Title : русские (надписи и пр. Voronine)
Language : Russian
Default : No
Forced : No
Text #7
ID : 12
Format : UTF-8
Codec ID : S_TEXT/UTF8
Codec ID/Info : UTF-8 Plain Text
Title : Русские (Voronine)
Language : Russian
Default : No
Forced : No
Автор рипа: Bathory
[Профиль] [ЛС]
Кто просматривает тему:

Форум Тема Автор Размер
Компьютерная литература (Программирование) Microsoft - Добро пожаловать в Windows 7 (Руководство по продукту Windows 7) [2010, PDF, RUS] TorrentFilm 71 MB
Фильмы (HD Rips | 720p, 1080p) Белые росы (Игорь Добролюбов) [1983, СССР, комедия, HDTV 1080i] TorrentFilm 5.55 GB
Кино СССР Белые росы (Игорь Добролюбов) [1983, СССР, Психологическая драма, лирическая комедия, DVD5] [Магнат] sergej644 3.93 GB
Фильмы (DVD 5/9) Белые Росы (Игорь Добролюбов) [1984, СССР, лирическая комедия, DVD5] Sub Rus TorrentFilm 3.8 GB
Кино СССР Белые Росы (Игорь Добролюбов)[1983, Лирическая комедия, DVDRip] sergej644 1.37 GB
Документальные HD Владимир Зельдин: Кумир Века (Глеб Добровольский) [2015, Документальный, HDTV 720p] TorrentFilm 1.3 GB
Фильмы 2015 года Вымирание / Добро пожаловать в гармонию / Extinction (Мигель Анхель Вивас / Miguel Ángel Vivas) [2015, Испания, Франция, США, Венгрия, ужасы, фантастика, драма, WEB-DLRip] DVO (2D) TorrentFilm 1.44 GB
Фильмы 2015 года Вымирание / Добро пожаловать в Гармонию / Extinction (Мигель Анхель Вивас) [2015, ужасы, фантастика, драма] WEB-DLRip | iTunes BOSS 1.45 GB
Показать сообщения:    

Текущее время: Сегодня 21:35

Часовой пояс: GMT



Вы не можете начинать темы
Вы не можете отвечать на сообщения
Вы не можете редактировать свои сообщения
Вы не можете удалять свои сообщения
Вы не можете голосовать в опросах
Вы не можете прикреплять файлы к сообщениям
Вы не можете скачивать файлы