Добро пожаловать в Акапулько / Welcome to Acapulco (2019) BDRip | D

 
Author Message

BOSS ®

Gender:

Longevity: 4 years 11 months

Posts: 14173

Location: ODESSA



: 22 ()

Mega Seeder 2 (1) Mega Seeder 1 (1) Top Releaser 4 (1)
Торрент-статистика

Post 20-Aug-2019 19:39

[Quote]

Добро пожаловать в Акапулько / Welcome to Acapulco
Страна: Мексика США
Производство: Global Group, Golden Ceiba Productions, Open Frames
Год выпуска: 2019
Жанр: боевик, триллер, комедия
Продолжительность: 01:28:36
Режиссер: Гильермо Иван
Авторы сценария: Гарри Чарльз, Роберт Бенжамин, Лорис Курчи
Роли озвучивали: Уильям Болдуин, Майкл Мэдсен, Брэдли Грегг, Ана Серрадилья, Майкл Кингсбэйкер, Анна Лаевская, Гильермо Иван, Зэк Роуз
Описание: У разработчика компьютерных игр Мэтта Бута есть один шанс спасти свою карьеру, представив свой самый крупный проект на церемонии вручения наград в американском Нью-Мексико. Но весело отметив встречу с приятелем в аэропорту, он оказывается в мексиканском городе Акапулько. После приземления Мэтт оказывается объектом охоты преступников, киллеров и федералов, ищущих таинственный пакет, который он якобы провез через таможню, но о котором ничего не знает. Объединившись с роковой красоткой и выпустив на волю своего «внутреннего экшен героя», он раскрывает заговор, который может потрясти все Соединенные Штаты, а возможно, и целый мир...

Перевод: Профессиональный (полное дублирование)
Субтитры: нет-Качество: BDRip | исходник - Welcome.to.Acapulco.2019.BDREMUX.1080p
Формат: AVI
Видео кодек: XviD
Аудио кодек: АС3
Видео: 720x304 (2.35:1), 23.976 fps, XviD build 73 ~1 897 kbps avg
Аудио: 48.0 kHz, AC3 Dolby Digital, 3/2 (L,C,R,l,r) + LFE ch, ~448 kbps
Дата премьеры (мир): 12 марта 2019
Дата премьеры (РФ): 14 марта 2019, «СБ Фильм»

Релиз от: порошков

Media Info

General
Формат : AVI
Формат/Информация : Audio Video Interleave
Размер файла : 1,46 Гбайт
Продолжительность : 1 ч. 28 м.
Общий поток : 2354 Кбит/сек
Название фильма : Добро пожаловать в Акапулько_2019_BDRip
Программа кодирования : VirtualDubMod 1.5.10.3 | (build 2550/release)
Авторское право : порошков
Видео
Идентификатор : 0
Формат : MPEG-4 Visual
Профиль формата : Advanced Simple@L5
Настройки формата : BVOP1 / Custom Matrix
Параметр BVOP формата : 1
Параметр QPel формата : Нет
Параметр GMC формата : Без точки перехода
Параметр матрицы формата : Выборочная
Идентификатор кодека : XVID
Идентификатор кодека/Подсказка : XviD
Продолжительность : 1 ч. 28 м.
Битрейт : 1897 Кбит/сек
Ширина : 720 пикселей
Высота : 304 пикселя
Соотношение сторон : 2,35:1
Частота кадров : 23,976 (24000/1001) кадра/сек
Цветовое пространство : YUV
Субдискретизация насыщенности : 4:2:0
Битовая глубина : 8 бит
Тип развёртки : Прогрессивная
Метод сжатия : С потерями
Бит/(Пиксели*Кадры) : 0.361
Размер потока : 1,17 Гбайт (81%)
Библиотека кодирования : XviD 73
Аудио
Идентификатор : 1
Формат : AC-3
Формат/Информация : Audio Coding 3
Коммерческое название : Dolby Digital
Идентификатор кодека : 2000
Продолжительность : 1 ч. 28 м.
Вид битрейта : Постоянный
Битрейт : 448 Кбит/сек
Каналы : 6 каналов
ChannelLayout : L R C LFE Ls Rs
Частота : 48,0 КГц
Частота кадров : 31,250 кадров/сек (1536 SPF)
Битовая глубина : 16 бит
Метод сжатия : С потерями
Размер потока : 284 Мбайт (19%)
Выравнивание : Разделение по промежуткам
Продолжительность промежутка : 42 мс. (1,00 видеокадр)
Время предзагрузки промежутка : 500 мс.

Скриншоты

[Profile] [PM]
Кто просматривает тему:

Forum Topic Author Size
Компьютерная литература (Программирование) Microsoft - Добро пожаловать в Windows 7 (Руководство по продукту Windows 7) [2010, PDF, RUS] TorrentFilm 71 MB
Фильмы (HD Rips | 720p, 1080p) Белые росы (Игорь Добролюбов) [1983, СССР, комедия, HDTV 1080i] TorrentFilm 5.55 GB
Кино СССР Белые росы (Игорь Добролюбов) [1983, СССР, Психологическая драма, лирическая комедия, DVD5] [Магнат] sergej644 3.93 GB
Фильмы (DVD 5/9) Белые Росы (Игорь Добролюбов) [1984, СССР, лирическая комедия, DVD5] Sub Rus TorrentFilm 3.8 GB
Кино СССР Белые Росы (Игорь Добролюбов)[1983, Лирическая комедия, DVDRip] sergej644 1.37 GB
Документальные HD Владимир Зельдин: Кумир Века (Глеб Добровольский) [2015, Документальный, HDTV 720p] TorrentFilm 1.3 GB
Фильмы 2015 года Вымирание / Добро пожаловать в гармонию / Extinction (Мигель Анхель Вивас / Miguel Ángel Vivas) [2015, Испания, Франция, США, Венгрия, ужасы, фантастика, драма, WEB-DLRip] DVO (2D) TorrentFilm 1.44 GB
Фильмы 2015 года Вымирание / Добро пожаловать в Гармонию / Extinction (Мигель Анхель Вивас) [2015, ужасы, фантастика, драма] WEB-DLRip | iTunes BOSS 1.45 GB
Display posts from previous:    

The time now is: Today 04:31

All times are GMT



You cannot post new topics in this forum
You cannot reply to topics in this forum
You cannot edit your posts in this forum
You cannot delete your posts in this forum
You cannot vote in polls in this forum
You cannot attach files in this forum
You cannot download files in this forum