Добровольцы (Юрий Егоров) [1958, драма, военный, DVDRip-AVC]

 
Автор Сообщение

sergej644 ®

Пол:

Стаж: 4 года 11 месяцев

Сообщений: 6039

Откуда: Soviet Union



Награды: Нет

Торрент-статистика

Создавать темы 29-Июл-2014 14:10

[Цитировать]

-Добровольцы- -
Год выпуска: 1958
Страна: СССР
Жанр: драма, военный
Продолжительность: 01:31:05
Cубтитры: русские
Навигация по главам: Есть
Режиссер: Юрий Егоров
Сценарий: Евгений Долматовский, Юрий Егоров
Оператор: Игорь Шатров
Композитор: Марк Фрадкин
-В ролях: Михаил Ульянов (Николай Кайтанов), Петр Щербаков (Слава Уфимцев), Леонид Быков (Алёша Акишин), Элина Быстрицкая (Лёля, жена Кайтанова), Людмила Крылова (Маша Суворова), Мария Виноградова (сержант Кухнаренко Валя), Микаэла Дроздовская (Таня, жена Уфимцева), Сергей Плотников (Сергей Николаевич, дядя Сережа), Виктор Чекмарев (Оглотков), Никифор Колофидин (генерал Никифор Григорьевич), Александр Сашин-Никольский (доктор Александр Иванович), Нонна Мордюкова (метростроевка, в титрах не указана)-Описание: Действие происходит в 30 - 50 годы. Неразлучные друзья Кайтанов, Уфимцев и Акишин добровольно стали первыми метростроевцами. О них и их подругах Леле, Маше и Тане и других друзьях и товарищах рассказывает этот фильм. Свою дружбу и единство они пронесли через всю жизнь. Трудовой фронт, испанские добровольные бригады, Вторая мировая война и снова послевоенный труд уже в мирное время, радости и печали, победы и утраты, любовь и счастье…-Рейтинг:

-

MI

Общее
Уникальный идентификатор : 248677698391053330582257475230480163178 (0xBB1595242D3C8F03A318EDB857D3616A)
Полное имя : T:\torrent files\Dobrovolcy_DVDRip-AVC.AC3.[tRuAVC].mkv
Формат : Matroska
Версия формата : Version 2
Размер файла : 1,51 Гбайт
Продолжительность : 1 ч. 31 м.
Общий поток : 2374 Кбит/сек
Кодирование произвёл : Pankrat7
Дата кодирования : UTC 2010-04-14 20:52:58
Программа кодирования : mkvmerge v2.9.8 ('C'est le bon') built on Aug 13 2009 12:49:06
Библиотека кодирования : libebml v0.7.7 + libmatroska v0.8.1
TITLE : Dobrovolcy (1958) Pankrat7
DATE_RELEASED : April 15 th 2010
COMMENT : DVDRip/x264/AC3 (Source: MPEG-2 Video; 720x576 (4:3); 6984 Kbps; 25 fps; Interlaced (Top Field First); 0,674 bpp)
Attachment : Yes / Yes
Видео
Идентификатор : 1
Формат : AVC
Формат/Информация : Advanced Video Codec
Профиль формата : High@L3.1
Параметр CABAC формата : Да
Параметр ReFrames формата : 11 кадров
Идентификатор кодека : V_MPEG4/ISO/AVC
Продолжительность : 1 ч. 31 м.
Битрейт : 1943 Кбит/сек
Ширина : 684 пикселя
Высота : 572 пикселя
Соотношение сторон : 1,276
Частота кадров : 25,000 кадров/сек
Цветовое пространство : YUV
Субдискретизация насыщенности : 4:2:0
Битовая глубина : 8 бит
Тип развёртки : Прогрессивная
Бит/(Пиксели*Кадры) : 0.199
Размер потока : 1,24 Гбайт (82%)
Заголовок : 684x572 => 730x572(1.276); 1950 Kbps; 25 fps; 0,199 bpp
Библиотека кодирования : x264 core 92 r1523kMod 25ca5b0
Настройки программы : cabac=1 / ref=11 / deblock=1:-2:-1 / analyse=0x3:0x113 / me=umh / subme=10 / psy=1 / psy_rd=1.10:0.40 / mixed_ref=1 / me_range=24 / chroma_me=1 / trellis=2 / 8x8dct=1 / cqm=0 / deadzone=21,11 / fast_pskip=1 / chroma_qp_offset=-4 / threads=6 / sliced_threads=0 / nr=0 / decimate=1 / interlaced=0 / constrained_intra=0 / bframes=7 / b_pyramid=2 / b_adapt=2 / b_bias=0 / direct=1 / wpredb=1 / wpredp=2 / keyint=250 / keyint_min=25 / scenecut=40 / intra_refresh=0 / rc=crf / mbtree=0 / crf=20.3000 / qcomp=0.72 / qpmin=10 / qpmax=51 / qpstep=4 / ip_ratio=1.40 / pb_ratio=1.30 / aq=2:1.15
Язык : Russian
Коэффициенты матрицы : BT.470-6 System B, BT.470-6 System G, BT.601-6 625, BT.1358 625, BT.1700 625 PAL, BT.1700 625 SECAM, IEC 61966-2-4 601
Аудио
Идентификатор : 2
Формат : AC-3
Формат/Информация : Audio Coding 3
Расширение режима : CM (complete main)
Идентификатор кодека : A_AC3
Продолжительность : 1 ч. 31 м.
Вид битрейта : Постоянный
Битрейт : 384 Кбит/сек
Каналы : 6 каналов
Расположение каналов : Front: L C R, Side: L R, LFE
Частота : 48,0 КГц
Битовая глубина : 16 бит
Метод сжатия : С потерями
Размер потока : 250 Мбайт (16%)
Заголовок : AC3; 384 Kbps; CBR; 48 Khz; 6 ch
Язык : Russian
Текст
Идентификатор : 3
Формат : UTF-8
Идентификатор кодека : S_TEXT/UTF8
Идентификатор кодека/Информация : UTF-8 Plain Text
Язык : Russian
Меню
00:00:00.000 : ru:Chapter 1
00:02:29.160 : ru:Chapter 2
00:06:28.040 : ru:Chapter 3
00:10:18.840 : ru:Chapter 4
00:15:19.040 : ru:Chapter 5
00:19:08.720 : ru:Chapter 6
00:23:08.080 : ru:Chapter 7
00:27:25.200 : ru:Chapter 8
00:30:55.320 : ru:Chapter 9
00:34:55.160 : ru:Chapter 10
00:37:21.800 : ru:Chapter 11
00:42:39.720 : ru:Chapter 12
00:45:20.200 : ru:Chapter 13
00:49:59.000 : ru:Chapter 14
00:53:15.200 : ru:Chapter 15
00:58:48.560 : ru:Chapter 16
01:02:26.360 : ru:Chapter 17
01:05:15.560 : ru:Chapter 18
01:10:44.200 : ru:Chapter 19
01:14:38.800 : ru:Chapter 20
01:17:49.000 : ru:Chapter 21
01:22:15.240 : ru:Chapter 22
01:25:30.720 : ru:Chapter 23
01:30:10.280 : ru:Chapter 24
01:31:05.360 : ru:Chapter 25
-
Качество: DVDRip-AVC
Формат: Matroska
Видеокодек: AVC
Аудиокодек: AC3
Видео: 684x572 (1.276); 1950 Kbps; 25 fps; 0,199 bpp
Аудио: Russian; AC3; 384 Kbps; CBR; 48 Khz; 6 ch (Front: L C R, Side: L R, LFE)
Субтитры: Russian; UTF-8
-

скриншоты

--
[Профиль] [ЛС]

Создавать темы 06-Авг-2015 22:04 (спустя 1 год)

Топик был перенесен из форума Кино СССР в форум Кино СССР
sergej644
 
Кто просматривает тему:

Форум Тема Автор Размер
Компьютерная литература (Программирование) Microsoft - Добро пожаловать в Windows 7 (Руководство по продукту Windows 7) [2010, PDF, RUS] TorrentFilm 71 MB
Фильмы (HD Rips | 720p, 1080p) Белые росы (Игорь Добролюбов) [1983, СССР, комедия, HDTV 1080i] TorrentFilm 5.55 GB
Кино СССР Белые росы (Игорь Добролюбов) [1983, СССР, Психологическая драма, лирическая комедия, DVD5] [Магнат] sergej644 3.93 GB
Фильмы (DVD 5/9) Белые Росы (Игорь Добролюбов) [1984, СССР, лирическая комедия, DVD5] Sub Rus TorrentFilm 3.8 GB
Кино СССР Белые Росы (Игорь Добролюбов)[1983, Лирическая комедия, DVDRip] sergej644 1.37 GB
Документальные HD Владимир Зельдин: Кумир Века (Глеб Добровольский) [2015, Документальный, HDTV 720p] TorrentFilm 1.3 GB
Фильмы 2015 года Вымирание / Добро пожаловать в гармонию / Extinction (Мигель Анхель Вивас / Miguel Ángel Vivas) [2015, Испания, Франция, США, Венгрия, ужасы, фантастика, драма, WEB-DLRip] DVO (2D) TorrentFilm 1.44 GB
Фильмы 2015 года Вымирание / Добро пожаловать в Гармонию / Extinction (Мигель Анхель Вивас) [2015, ужасы, фантастика, драма] WEB-DLRip | iTunes BOSS 1.45 GB
Показать сообщения:    

Текущее время: Сегодня 16:30

Часовой пояс: GMT



Вы не можете начинать темы
Вы не можете отвечать на сообщения
Вы не можете редактировать свои сообщения
Вы не можете удалять свои сообщения
Вы не можете голосовать в опросах
Вы не можете прикреплять файлы к сообщениям
Вы не можете скачивать файлы