Добровольцы (Юрий Егоров) [1958, СССР, романтико-героическая кинопоэма, DVD5] Sub Rus

 
Автор Сообщение

sergej644 ®

Пол:

Стаж: 4 года 11 месяцев

Сообщений: 6040

Откуда: Soviet Union



Награды: Нет

Торрент-статистика

Создавать темы 29-Июл-2014 14:07

[Цитировать]

-Добровольцы- -
Страна: СССР
Студия: Киностудия имени Горького
Жанр: романтико-героическая кинопоэма
Год выпуска: 1958
Продолжительность: 01:31:05
Режиссер: Юрий Егоров
-
В ролях: Михаил Ульянов, Петр Щербаков, Леонид Быков, Элина Быстрицкая, Людмила Крылова, Микаэла Дроздовская, Сергей Плотников, Виктор Чекмарев, Никифор Колофидин, Александр Сашин-Никольский, Нонна Мордюкова, Мария Виноградова, Павел Винник, Юрий Киреев, Юрий Горбунов, Иван Косых, Леонид Пирогов, Людмила Марченко, Иван Мочалов, Людмила Иванова, Валентин Брылеев, Светлана Харитонова, Елена Максимова, Николай Погодин, Алевтина Румянцева
-
Описание: Вместе с сотнями других юношей и девушек на строительство первой очереди Московского метрополитена пришли комсомольцы Николай Кайтанов, Слава Уфимцев, Леша Акишин, девчата Леля и Маша. Их объединяет романтика подвига, стремление быть всегда на самом трудном и опасном участке. Мелькают дни, наполненные увлеченной работой, ставятся первые рекорды, переживаются первые утраты. Проходят годы. Жизнь далеко разбросала друзей. Начинается Великая Отечественная война. Снова комсомольцы-добровольцы на самых опасных рубежах...
-Доп. информация: По одноименному роману в стихах Евгения Долматовского.
Сценарий: Евгений Долматовский, Юрий Егоров
Оператор: Игорь Шатров
Художник: Петр Пашкевич
Композитор: Марк Фрадкин
Награды: вторая премия ВКФ среди художественных фильмов (Киев, 1959)
- -Меню:
Тип релиза: DVD5 ("Twister")
Контейнер: DVD Video
Видео: PAL 4:3 (720x576) VBR, 7140 kbps, 25 fps,0,688 bit/pix
Аудио: Russian (Dolby AC3, 6 ch, 384 kbps, 48 kHz)
Субтитры: Russian (RLE)
-

Отчет DVDInfo

Title: DOBROVOLCI
Size: 4.38 Gb ( 4 589 056 KBytes ) - DVD-5
Enabled regions: 5
VTS_01 :
Play Length: 00:00:13
Video: PAL 4:3 (720x576) VBR
Audio:
Not specified (Dolby AC3, 6 ch)
VTS_02 :
Play Length: 00:01:49
Video: PAL 16:9 (720x576) VBR, Auto Pan&Scan
Audio:
Russian (Dolby AC3, 2 ch)
VTS_03 :
Play Length: 01:31:05
Video: PAL 4:3 (720x576) VBR
Audio:
Russian (Dolby AC3, 6 ch)
Subtitles:
Russian
Menu Video:
PAL 4:3 (720x576) VBR
Menu Subtitles:
Not specified
Menu English Language Unit :
Root Menu
Subpicture Menu

Отчет MediaInfo

Полное имя : Dobrovolcy\VIDEO_TS\VTS_03_1.VOB
Формат : MPEG-PS
Размер файла : 1024 Мбайт
Продолжительность : 18 м.
Общий поток : 7674 Кбит/сек
Видео
Идентификатор : 224 (0xE0)
Формат : MPEG Video
Версия формата : Version 2
Профиль формата : Main@Main
Параметр BVOP формата : Да
Параметр матрицы формата : Выборочная
Продолжительность : 18 м.
Вид битрейта : Переменный
Битрейт : 7137 Кбит/сек
Максимальный битрейт : 9000 Кбит/сек
Ширина : 720 пикселей
Высота : 576 пикселей
Соотношение сторон : 4:3
Частота кадров : 25,000 кадров/сек
Стандарт вещания : PAL
Цветовое пространство : YUV
Субдискретизация насыщенности : 4:2:0
Битовая глубина : 8 бит
Тип развёртки : Чересстрочная
Порядок развёртки : Верхнее поле первое
Метод сжатия : С потерями
Бит/(Пиксели*Кадры) : 0.688
Размер потока : 952 Мбайт (93%)
Аудио
Идентификатор : 189 (0xBD)-128 (0x80)
Формат : AC-3
Формат/Информация : Audio Coding 3
Расширение режима : CM (complete main)
Режим смешивания : DVD-Video
Продолжительность : 18 м.
Вид битрейта : Постоянный
Битрейт : 384 Кбит/сек
Каналы : 6 каналов
Расположение каналов : Front: L C R, Side: L R, LFE
Частота : 48,0 КГц
Битовая глубина : 16 бит
Метод сжатия : С потерями
Размер потока : 51,2 Мбайт (5%)
-

Сканы обложки и диска

-

Скриншоты меню

-

Скриншоты доп. материалов

-

Скриншоты

-- --
[Профиль] [ЛС]

Создавать темы 06-Авг-2015 22:05 (спустя 1 год)

Топик был перенесен из форума Кино СССР в форум Фильмы (DVD 5/9)
sergej644
 
Кто просматривает тему:

Форум Тема Автор Размер
Компьютерная литература (Программирование) Microsoft - Добро пожаловать в Windows 7 (Руководство по продукту Windows 7) [2010, PDF, RUS] TorrentFilm 71 MB
Фильмы (HD Rips | 720p, 1080p) Белые росы (Игорь Добролюбов) [1983, СССР, комедия, HDTV 1080i] TorrentFilm 5.55 GB
Кино СССР Белые росы (Игорь Добролюбов) [1983, СССР, Психологическая драма, лирическая комедия, DVD5] [Магнат] sergej644 3.93 GB
Фильмы (DVD 5/9) Белые Росы (Игорь Добролюбов) [1984, СССР, лирическая комедия, DVD5] Sub Rus TorrentFilm 3.8 GB
Кино СССР Белые Росы (Игорь Добролюбов)[1983, Лирическая комедия, DVDRip] sergej644 1.37 GB
Документальные HD Владимир Зельдин: Кумир Века (Глеб Добровольский) [2015, Документальный, HDTV 720p] TorrentFilm 1.3 GB
Фильмы 2015 года Вымирание / Добро пожаловать в гармонию / Extinction (Мигель Анхель Вивас / Miguel Ángel Vivas) [2015, Испания, Франция, США, Венгрия, ужасы, фантастика, драма, WEB-DLRip] DVO (2D) TorrentFilm 1.44 GB
Фильмы 2015 года Вымирание / Добро пожаловать в Гармонию / Extinction (Мигель Анхель Вивас) [2015, ужасы, фантастика, драма] WEB-DLRip | iTunes BOSS 1.45 GB
Показать сообщения:    

Текущее время: Сегодня 20:41

Часовой пояс: GMT



Вы не можете начинать темы
Вы не можете отвечать на сообщения
Вы не можете редактировать свои сообщения
Вы не можете удалять свои сообщения
Вы не можете голосовать в опросах
Вы не можете прикреплять файлы к сообщениям
Вы не можете скачивать файлы