Добейся успеха: Борись до конца! / Bring It On: Fight to the Finish (Билле Вудрафф / Bille Woodruff) [2009, США, комедия, спорт, DVDRip] MVO (СТС) + Original Eng

 
Автор Сообщение

painkiller ®

Стаж: 2 года 3 месяца

Сообщений: 582



Награды: Нет

Торрент-статистика

Создавать темы 15-Авг-2014 10:17

[Цитировать]

Добейся успеха: Борись до конца! / Bring It On: Fight to the Finish
Страна: США
Жанр: комедия, спорт
Год выпуска: 2009
Продолжительность: 01:38:04
Перевод: Профессиональный (многоголосый закадровый) СТС
Cубтитры: нет
Оригинальная аудиодорожка: английский
Режиссер: Билле Вудрафф / Bille Woodruff
В ролях: Кристина Милиан, Ванесса Борн, Коди Лонго, Гэбриэлль Дэннис, Рэйчел Брук Смит, Мэган Холдер, Никки СуХу, Холлэнд Роден, Лаура Серон, Дэвид Старзик, Брэндон Гонзалес, Бриттани Карсон и др.
Описание: Миловидная чирлидерша Лина Круз переезжает с родителями из Восточного Лос-Анджелеса в пляжный и солнечный Малибу. В новой школе у Лины появляется соперница Эвери, которая в данной школе уже звезда и капитан чирлидерш. Лина влюбляется в брата Эвери — Эвана. В новом учебном году обеим девушкам предстоит участвовать в школьном конкурсе, сможет ли Лина одержать победу над Эвери и не потерять тем самым любовь Эвана?
Доп. информация: Видео взято из этой раздачи.
Спасибо mixaiil77 за перевод СТС.
Сэмпл: http://multi-up.com
Качество видео: DVDRip
Формат видео: AVI
Видео: 704x384 (1.83:1), 25 fps, XviD MPEG-4, 1601 kbps avg, 0.24 bit/pixel
Аудио: 48 kHz AC3 Dolby Digital 2/0 (L,R) ch 192.00 kbps avg
Аудио 2: 48 kHz AC3 Dolby Digital 2/0 (L,R) ch 192.00 kbps avg

Сравнение скриншотов

Сравнение с раздачей HDRip

MediaInfo

General
Format : AVI
Format/Info : Audio Video Interleave
File size : 1.37 GiB
Duration : 1h 38mn
Overall bit rate : 2 001 Kbps
Writing application : VirtualDubMod 1.5.10.2 (build 2542/release)
Writing library : VirtualDubMod build 2542/release
Video
ID : 0
Format : MPEG-4 Visual
Format profile : Advanced Simple@L5
Format settings, BVOP : 2
Format settings, QPel : No
Format settings, GMC : No warppoints
Format settings, Matrix : Default (MPEG)
Muxing mode : Packed bitstream
Codec ID : XVID
Codec ID/Hint : XviD
Duration : 1h 38mn
Bit rate : 1 602 Kbps
Width : 704 pixels
Height : 384 pixels
Display aspect ratio : 1.85:1
Frame rate : 25.000 fps
Color space : YUV
Chroma subsampling : 4:2:0
Bit depth : 8 bits
Scan type : Progressive
Compression mode : Lossy
Bits/(Pixel*Frame) : 0.237
Stream size : 1.10 GiB (80%)
Writing library : XviD 1.1.2 (UTC 2006-11-01)
Audio #1
ID : 1
Format : AC-3
Format/Info : Audio Coding 3
Mode extension : CM (complete main)
Format settings, Endianness : Big
Codec ID : 2000
Duration : 1h 38mn
Bit rate mode : Constant
Bit rate : 192 Kbps
Channel(s) : 2 channels
Channel positions : Front: L R
Sampling rate : 48.0 KHz
Bit depth : 16 bits
Compression mode : Lossy
Stream size : 135 MiB (10%)
Alignment : Split accross interleaves
Interleave, duration : 40 ms (1.00 video frame)
Interleave, preload duration : 500 ms
Audio #2
ID : 2
Format : AC-3
Format/Info : Audio Coding 3
Mode extension : CM (complete main)
Format settings, Endianness : Big
Codec ID : 2000
Duration : 1h 38mn
Bit rate mode : Constant
Bit rate : 192 Kbps
Channel(s) : 2 channels
Channel positions : Front: L R
Sampling rate : 48.0 KHz
Bit depth : 16 bits
Compression mode : Lossy
Stream size : 135 MiB (10%)
Alignment : Split accross interleaves
Interleave, duration : 40 ms (1.00 video frame)
Interleave, preload duration : 500 ms

Скриншот c названием фильма

Скриншоты


--
[Профиль] [ЛС]

Создавать темы 06-Авг-2015 23:10 (спустя 11 месяцев 22 дня)

Топик был перенесен из форума Фильмы до 2014 года в форум Фильмы до 2012 года
sergej644
 

Создавать темы 12-Июн-2016 08:48 (спустя 1 год 9 месяцев)

Топик был перенесен из форума Фильмы 2011 года в форум Фильмы 2009 года
Russian Mafia
 
Кто просматривает тему:

Показать сообщения:    

Текущее время: Сегодня 02:46

Часовой пояс: GMT



Вы не можете начинать темы
Вы не можете отвечать на сообщения
Вы не можете редактировать свои сообщения
Вы не можете удалять свои сообщения
Вы не можете голосовать в опросах
Вы не можете прикреплять файлы к сообщениям
Вы не можете скачивать файлы