Дневной Дозор / Day Watch (2005) BDRip 1080p

 
Автор Сообщение

sergej644 ®

Пол:

Стаж: 4 года 11 месяцев

Сообщений: 6043

Откуда: Soviet Union



Награды: Нет

Торрент-статистика

Создавать темы 27-Янв-2015 05:01

[Цитировать]

Информация о фильме:
Название: Дневной дозор
Год выхода: 2006
Жанр: фэнтези, боевик, триллер
Режиссер: Тимур Бекмамбетов
В главных ролях: Константин Хабенский, Мария Порошина, Владимир Меньшов, Галина Тюнина, Виктор Вержбицкий, Жанна Фриске, Дмитрий Мартынов, Валерий Золотухин, Алексей Чадов, Нуржуман Ихтымбаев
О фильме:
Ночью в подъезде своего дома убита молодая женщина. На теле не обнаружено никаких следов насилия… Зыбкое равновесие между Светлыми и Темными нарушено. И чаша весов склоняется в сторону Темных. Но убитая — Темная иная, а значит подозрение падает на Светлых.
Гессер срочно собирает команду: обвинение в убийстве — серьезная проблема. Он обязан реагировать. И, прежде всего, понять кто где был и чем занимался в указанное Темными время. Выясняется, что алиби отсутствует только у Городецкого…

Выпущено: Россия
Продолжительность: 02:25:48
Перевод: Оригинал + Английский
Файл
Кодек: x264
Качество: BDRip 1080p
Видео: 1920x816, 6341 Kbps, 23.976 fps
Аудио #1: AC-3, 6 ch, 640 kbps (Rus)
Аудио #2: AC-3, 6 ch, 640 kbps (Eng)
Субтитры: русские форсированные, английские

Скриншоты

MI

Общее
Уникальный идентификатор : 189616785052743896356215543446181402694 (0x8EA6DD4B3A987A6CB98FE63AED5E5846)
Полное имя : Дневной Дозор.2005.BDRip.1080p.Rus.Eng.mkv
Формат : Matroska
Версия формата : Version 2
Размер файла : 7,76 Гбайт
Продолжительность : 2 ч. 25 м.
Общий поток : 7617 Кбит/сек
Название фильма : Дневной Дозор.2005
Дата кодирования : UTC 2012-12-01 14:45:13
Программа кодирования : mkvmerge v5.8.0 ('No Sleep / Pillow') built on Sep 2 2012 15:37:04
Библиотека кодирования : libebml v1.2.3 + libmatroska v1.3.0
Видео
Идентификатор : 1
Формат : AVC
Формат/Информация : Advanced Video Codec
Профиль формата : High@L4.1
Параметр CABAC формата : Да
Параметр ReFrames формата : 5 кадров
Идентификатор кодека : V_MPEG4/ISO/AVC
Продолжительность : 2 ч. 25 м.
Битрейт : 6341 Кбит/сек
Ширина : 1920 пикселей
Высота : 816 пикселей
Соотношение сторон : 2,35:1
Режим частоты кадров : Постоянный
Частота кадров : 23,976 кадра/сек
Цветовое пространство : YUV
Субдискретизация насыщенности : 4:2:0
Битовая глубина : 8 бит
Тип развёртки : Прогрессивная
Бит/(Пиксели*Кадры) : 0.169
Размер потока : 6,30 Гбайт (81%)
Заголовок : Rip by Boriy
Библиотека кодирования : x264 core 129 r2230 1cffe9f
Настройки программы : cabac=1 / ref=5 / deblock=1:0:0 / analyse=0x3:0x113 / me=umh / subme=10 / psy=1 / psy_rd=1.00:0.10 / mixed_ref=1 / me_range=32 / chroma_me=1 / trellis=2 / 8x8dct=1 / cqm=0 / deadzone=21,11 / fast_pskip=0 / chroma_qp_offset=-3 / threads=12 / lookahead_threads=2 / sliced_threads=0 / nr=0 / decimate=0 / interlaced=0 / bluray_compat=0 / constrained_intra=0 / bframes=5 / b_pyramid=2 / b_adapt=2 / b_bias=0 / direct=3 / weightb=1 / open_gop=0 / weightp=2 / keyint=240 / keyint_min=23 / scenecut=40 / intra_refresh=0 / rc=2pass / mbtree=0 / bitrate=6341 / ratetol=1.0 / qcomp=0.60 / qpmin=0 / qpmax=69 / qpstep=4 / cplxblur=20.0 / qblur=0.5 / ip_ratio=1.40 / pb_ratio=1.30 / aq=1:0.80
Язык : English
Default : Да
Forced : Нет
Аудио #1
Идентификатор : 2
Формат : AC-3
Формат/Информация : Audio Coding 3
Расширение режима : CM (complete main)
Параметр Endianness формата : Big
Идентификатор кодека : A_AC3
Продолжительность : 2 ч. 25 м.
Вид битрейта : Постоянный
Битрейт : 640 Кбит/сек
Каналы : 6 каналов
Расположение каналов : Front: L C R, Side: L R, LFE
Частота : 48,0 КГц
Битовая глубина : 16 бит
Метод сжатия : С потерями
Размер потока : 667 Мбайт (8%)
Заголовок : Оригинал
Язык : Russian
Default : Да
Forced : Нет
Аудио #2
Идентификатор : 3
Формат : AC-3
Формат/Информация : Audio Coding 3
Расширение режима : CM (complete main)
Параметр Endianness формата : Big
Идентификатор кодека : A_AC3
Продолжительность : 2 ч. 25 м.
Вид битрейта : Постоянный
Битрейт : 640 Кбит/сек
Каналы : 6 каналов
Расположение каналов : Front: L C R, Side: L R, LFE
Частота : 48,0 КГц
Битовая глубина : 16 бит
Метод сжатия : С потерями
Размер потока : 667 Мбайт (8%)
Язык : English
Default : Нет
Forced : Нет
Текст #1
Идентификатор : 4
Формат : UTF-8
Идентификатор кодека : S_TEXT/UTF8
Идентификатор кодека/Информация : UTF-8 Plain Text
Заголовок : Forced
Язык : Russian
Default : Да
Forced : Да
Текст #2
Идентификатор : 5
Формат : UTF-8
Идентификатор кодека : S_TEXT/UTF8
Идентификатор кодека/Информация : UTF-8 Plain Text
Заголовок : Full
Язык : English
Default : Нет
Forced : Нет
Меню
00:00:00.000 : :Chapter 1
00:05:48.139 : :Chapter 2
00:08:30.218 : :Chapter 3
00:12:35.838 : :Chapter 4
00:17:00.352 : :Chapter 5
00:20:30.270 : :Chapter 6
00:23:24.319 : :Chapter 7
00:26:59.200 : :Chapter 8
00:32:45.797 : :Chapter 9
00:35:15.530 : :Chapter 10
00:38:31.976 : :Chapter 11
00:40:52.450 : :Chapter 12
00:45:38.068 : :Chapter 13
00:49:48.777 : :Chapter 14
00:54:10.622 : :Chapter 15
00:57:15.849 : :Chapter 16
01:00:01.556 : :Chapter 17
01:01:27.141 : :Chapter 18
01:05:13.576 : :Chapter 19
01:06:54.260 : :Chapter 20
01:08:56.715 : :Chapter 21
01:13:09.551 : :Chapter 22
01:16:12.025 : :Chapter 23
01:20:04.591 : :Chapter 24
01:22:50.173 : :Chapter 25
01:28:49.824 : :Chapter 26
01:30:42.770 : :Chapter 27
01:34:49.475 : :Chapter 28
01:39:45.813 : :Chapter 29
01:45:16.476 : :Chapter 30
01:46:56.326 : :Chapter 31
01:50:32.834 : :Chapter 32
01:52:12.934 : :Chapter 33
01:54:37.120 : :Chapter 34
01:57:41.804 : :Chapter 35
02:01:07.009 : :Chapter 36
02:08:46.969 : :Chapter 37
02:10:28.862 : :Chapter 38
02:13:10.065 : :Chapter 39
02:17:02.130 : :Chapter 40
02:25:48.281 : :Chapter 41
[Профиль] [ЛС]
Показать сообщения:    

Текущее время: Сегодня 12:49

Часовой пояс: GMT



Вы не можете начинать темы
Вы не можете отвечать на сообщения
Вы не можете редактировать свои сообщения
Вы не можете удалять свои сообщения
Вы не можете голосовать в опросах
Вы не можете прикреплять файлы к сообщениям
Вы не можете скачивать файлы