Дневник мамы первоклассника (2014) WEBRip от ivandubskoj

 
Автор Сообщение

sergej644 ®

Пол:

Стаж: 4 года 11 месяцев

Сообщений: 6043

Откуда: Soviet Union



Награды: Нет

Торрент-статистика

Создавать темы 06-Дек-2014 14:48

[Цитировать]

Информация о фильме
Название: Дневник мамы первоклассника
Год выхода: 2014
Жанр: Детский, семейный, драма, мелодрама, экранизация
Режиссёр: Андрей Силкин
В ролях: Светлана Ходченкова, Дмитрий Ендальцев, Дима Полунин, Елена Яковлева, Виктор Сухоруков, Галина Польских, Олеся Жураковская, Софья Мицкевич, Арсений Мурзин, Матвей Михалевич
О фильме:
События в картине разворачиваются в хронологическом порядке с первого родительского собрания до последнего учебного дня первоклассника, освещая самые яркие дни мальчика, его мамы и папы.
Семья Васи — главного героя картины — понимает, как беззаботно им раньше жилось и сколько проблем и тревог приносит школьная пора. За год перед Васей как будто в миниатюре разворачивается целая жизнь. Дружба, первая любовь, муки творчества, предательство, жизнь в коллективе, упорная работа, преодоление «препятствий» — вот что, буквально, как снежный ком, сваливается на голову маленького мальчика. Кто поддержит? Кто объяснит? Кто подскажет? Только единение семьи и школы может помочь ребенку правильно расставить акценты и справиться с трудностями, что в свою очередь вызывает у него гордость за родителей и учителей. Он начинает чувствовать себя увереннее, адаптируясь ко взрослой жизни. Время проходит незаметно. Находясь в лирическом настроении, родители замечают: «Надо же, уже первый класс закончился…

Страна: Россия
Студия: Мосфильм, Вертикаль
Продолжительность: 01:15:43
Перевод: Не требуется
Файл
Кодек: XviD
Качество: WEBRip
Видео: XviD, 1155 Кбит/с, 656x352, 25 кадр/с
Звук: Русский, MP3, 48000 Гц, 128 Кбит/с, 2 канала (Стерео)
Субтитры: Нет

MediaInfo

General
Complete name : Dnevnik.mami.pervoklassnika.2014.WEBRip.700MB.avi
Format : AVI
Format/Info : Audio Video Interleave
File size : 700 MiB
Duration : 1h 15mn
Overall bit rate : 1 293 Kbps
Writing application : VirtualDubMod 1.5.10.3 (build 2550/release)
Writing library : VirtualDubMod build 2550/release
Video
ID : 0
Format : MPEG-4 Visual
Format profile : Advanced Simple@L5
Format settings, BVOP : 1
Format settings, QPel : No
Format settings, GMC : No warppoints
Format settings, Matrix : Custom
Codec ID : XVID
Codec ID/Hint : XviD
Duration : 1h 15mn
Bit rate : 1 155 Kbps
Width : 656 pixels
Height : 352 pixels
Display aspect ratio : 1.864
Frame rate : 25.000 fps
Color space : YUV
Chroma subsampling : 4:2:0
Bit depth : 8 bits
Scan type : Progressive
Compression mode : Lossy
Bits/(Pixel*Frame) : 0.200
Stream size : 626 MiB (89%)
Writing library : XviD 73
Audio
ID : 1
Format : MPEG Audio
Format version : Version 1
Format profile : Layer 3
Codec ID : 55
Codec ID/Hint : MP3
Duration : 1h 15mn
Bit rate mode : Constant
Bit rate : 128 Kbps
Channel(s) : 2 channels
Sampling rate : 48.0 KHz
Compression mode : Lossy
Stream size : 69.3 MiB (10%)
Alignment : Aligned on interleaves
Interleave, duration : 40 ms (1.00 video frame)
Interleave, preload duration : 504 ms
Writing library : LAME3.99r
Encoding settings : -m s -V 4 -q 2 -lowpass 17 -b 128

Скриншоты

Автор рипа - ivandubskoj
[Профиль] [ЛС]
Показать сообщения:    

Текущее время: Сегодня 16:42

Часовой пояс: GMT



Вы не можете начинать темы
Вы не можете отвечать на сообщения
Вы не можете редактировать свои сообщения
Вы не можете удалять свои сообщения
Вы не можете голосовать в опросах
Вы не можете прикреплять файлы к сообщениям
Вы не можете скачивать файлы