Дневник горничной / Journal d\'une femme de chambre (Бенуа Жако / Benoît Jacquot) [2015, Франция, Бельгия, драма, WEB-DLRip] Dub

 
Автор Сообщение

TorrentFilm ®

Пол:

Стаж: 2 года

Сообщений: 7741



Награды: Нет

Торрент-статистика

Создавать темы 07-Июл-2015 00:10

[Цитировать]

Дневник горничной / Journal d'une femme de chambre

Страна: Франция, Бельгия
Жанр: драма
Год выпуска: 2015
Продолжительность: 01:36:36
Перевод: Профессиональный (дублированный) - iTunes
Cубтитры: нет

Режиссер: Бенуа Жако / Benoît Jacquot
В ролях: Леа Сейду, Венсан Линдон, Клотильд Молле, Херв Пьер, Mélodie Valemberg, Патрик д'Асумсао, Венсан Лакост, Жозефин Деренне, Доминик Реймон, Розетт
Описание: Горничная Селестина, чья сексапильная внешность - неизменный объект мужского внимания, уехав из Парижа, поступает на службу в семью провинциальных помещиков Ланлэр. В этом доме она вынуждена постоянно лавировать между обитателями, прислуживая властной и скаредной хозяйке и давая отпор приставаниям ее похотливого супруга. Чувствуя себя чужой в этой обители достатка, Селестина все больше сближается с молчаливым слугой-садовником Жозефом, чья брутальная натура пленяет ее уязвленную женственность...
Качество видео: WEB-DLRip [DHeBH1k.g0PH14H0j.2015.D.WEB-DL.720p.mkv]
Формат видео: AVI
Видео: 720x304 (2.37:1), 24 fps, XviD build 73 ~1777 kbps avg, 0.34 bit/pixel
Аудио: 48 kHz, AC3 Dolby Digital, 3/2 (L,C,R,l,r) + LFE ch, ~384 kbps

MediaInfo

Общее
Полное имя : H:\Journal.d'une.femme.de.chambre.2015.web-dlrip_[1.46]_[teko].avi
Формат : AVI
Формат/Информация : Audio Video Interleave
Размер файла : 1,46 Гбайт
Продолжительность : 1 ч. 36 м.
Общий поток : 2171 Кбит/сек
Программа кодирования : VirtualDubMod 1.5.10.3 | www.virtualdub-fr.org || (build 2550/release)
Библиотека кодирования : VirtualDubMod build 2550/release
Видео
Идентификатор : 0
Формат : MPEG-4 Visual
Профиль формата : Advanced Simple@L5
Параметр BVOP формата : 1
Параметр QPel формата : Нет
Параметр GMC формата : Без точки перехода
Параметр матрицы формата : Выборочная
Идентификатор кодека : XVID
Идентификатор кодека/Подсказка : XviD
Продолжительность : 1 ч. 36 м.
Битрейт : 1778 Кбит/сек
Ширина : 720 пикселей
Высота : 304 пикселя
Соотношение сторон : 2,35:1
Частота кадров : 24,000 кадра/сек
Цветовое пространство : YUV
Субдискретизация насыщенности : 4:2:0
Битовая глубина : 8 бит
Тип развёртки : Прогрессивная
Метод сжатия : С потерями
Бит/(Пиксели*Кадры) : 0.338
Размер потока : 1,19 Гбайт (82%)
Библиотека кодирования : XviD 73
Аудио
Идентификатор : 1
Формат : AC-3
Формат/Информация : Audio Coding 3
Расширение режима : CM (complete main)
Параметр Endianness формата : Big
Идентификатор кодека : 2000
Продолжительность : 1 ч. 36 м.
Вид битрейта : Постоянный
Битрейт : 384 Кбит/сек
Каналы : 6 каналов
Расположение каналов : Front: L C R, Side: L R, LFE
Частота : 48,0 КГц
Битовая глубина : 16 бит
Метод сжатия : С потерями
Размер потока : 264 Мбайт (18%)
Выравнивание : Разделение по промежуткам
Продолжительность промежутка : 42 мс. (1,00 видеокадр)
Время предзагрузки промежутка : 500 мс.
Релиз группы:
--
[Профиль] [ЛС]
Показать сообщения:    

Текущее время: Сегодня 06:28

Часовой пояс: GMT



Вы не можете начинать темы
Вы не можете отвечать на сообщения
Вы не можете редактировать свои сообщения
Вы не можете удалять свои сообщения
Вы не можете голосовать в опросах
Вы не можете прикреплять файлы к сообщениям
Вы не можете скачивать файлы