Дневники велосипедиста (5 из 7 серий) / The Bicycle Diaries (with Nikki Muller) (Ева Войтлэндер / Eve Voigtlander) [2012, Путешествия, HDTV-AVC 1080i]

 
Автор Сообщение

TorrentFilm ®

Пол:

Стаж: 1 год 11 месяцев

Сообщений: 7741



Награды: Нет

Торрент-статистика

Создавать темы 22-Мар-2015 00:02

[Цитировать]

Дневники велосипедиста (5 из 7 серий) / The Bicycle Diaries (with Nikki Muller)
Год выпуска: 2012
Страна: Сингапур
Студия: Channel News Asia / HD Life
Жанр: Путешествия
Продолжительность: каждая серия по 00:23:00
Перевод: Студийный (одноголосый закадровый)
Доп. инфо о переводе: SDI Media
Русские субтитры: нет
Режиссер: Ева Войтлэндер / Eve Voigtlander
Описание: В самых далёких и интересных местах Азии уже чувствуется дух нового времени, что видно по изменённому облику столиц и городов. С Ники Мюллер вы побываете в Лаосе, Мьянме, Таиланде, Вьетнаме и Камбодже и узнаете новые тайны истории этих стран. Изюминка цикла – велосипед, на котором путешествует очаровательная ведущая.
Список серий в раздаче:
1. Юньнань (Китай)
2. Лаос
3. Камбоджа
4. Таиланд
5. Вьетнам (1-я часть)
Раздача ведется путем добавления новых серий.
Доп. информация: Прямая запись DVB-AVC потока со спутника, без пережатия. Для сборки использован tsMuxer.
Сэмпл: http://multi-up.com/1038971
Тип релиза: HDTV 1080i
Контейнер: TS
Видео: H.264/AVC, PAL, 1920x1080i VBR, 16:9, 11,0 Mbps, 25.00fps
Аудио: Русский, MPEG1 - Layer 2, 48000Hz, stereo, 192kbps

MediaInfo

GeneralID : 1 (0x1)Complete name :HD-Life_ДНЕВНИКИ ВЕЛОСИПЕДИСТА - - Вьетнам 1-я часть (12+)_new.tsFormat : MPEG-TSFile size : 1.81 GiBDuration : 21mn 59sOverall bit rate : 11.8 MbpsMaximum Overall bit rate : 35.5 Mbps
VideoID : 4113 (0x1011)Menu ID : 1 (0x1)Format : AVCFormat/Info : Advanced Video CodecFormat profile : High@L4.0Format settings, CABAC : YesFormat settings, ReFrames : 4 framesCodec ID : 27Duration : 21mn 59sBit rate mode : VariableBit rate : 11.0 MbpsMaximum bit rate : 40.0 MbpsWidth : 1 920 pixelsHeight : 1 080 pixelsDisplay aspect ratio : 16:9Frame rate : 25.000 fpsStandard : ComponentColor space : YUVChroma subsampling : 4:2:0Bit depth : 8 bitsScan type : InterlacedScan order : Top Field FirstBits/(Pixel*Frame) : 0.213Stream size : 1.69 GiB (93%)Color primaries : BT.709-5, BT.1361, IEC 61966-2-4, SMPTE RP177Transfer characteristics : BT.709-5, BT.1361Matrix coefficients : BT.709-5, BT.1361, IEC 61966-2-4 709, SMPTE RP177
AudioID : 4352 (0x1100)Menu ID : 1 (0x1)Format : MPEG AudioFormat version : Version 1Format profile : Layer 2Codec ID : 4Duration : 21mn 59sBit rate mode : ConstantBit rate : 192 KbpsChannel(s) : 2 channelsSampling rate : 48.0 KHzCompression mode : LossyDelay relative to video : -228msStream size : 30.2 MiB (2%)Language : Russian
GeneralID : 1 (0x1)Complete name : HD-Life_ДНЕВНИКИ ВЕЛОСИПЕДИСТА - - Лаос (12+)_new.tsFormat : MPEG-TSFile size : 1.57 GiBDuration : 22mn 52sOverall bit rate : 9 814 KbpsMaximum Overall bit rate : 35.5 Mbps
VideoID : 4113 (0x1011)Menu ID : 1 (0x1)Format : AVCFormat/Info : Advanced Video CodecFormat profile : High@L4.0Format settings, CABAC : YesFormat settings, ReFrames : 4 framesFormat settings, GOP : M=1, N=56Codec ID : 27Duration : 22mn 52sBit rate mode : VariableBit rate : 9 135 KbpsMaximum bit rate : 40.0 MbpsWidth : 1 920 pixelsHeight : 1 080 pixelsDisplay aspect ratio : 16:9Frame rate : 25.000 fpsStandard : ComponentColor space : YUVChroma subsampling : 4:2:0Bit depth : 8 bitsScan type : InterlacedScan order : Top Field FirstBits/(Pixel*Frame) : 0.176Stream size : 1.46 GiB (93%)Color primaries : BT.709-5, BT.1361, IEC 61966-2-4, SMPTE RP177Transfer characteristics : BT.709-5, BT.1361Matrix coefficients : BT.709-5, BT.1361, IEC 61966-2-4 709, SMPTE RP177
AudioID : 4352 (0x1100)Menu ID : 1 (0x1)Format : MPEG AudioFormat version : Version 1Format profile : Layer 2Codec ID : 4Duration : 22mn 52sBit rate mode : ConstantBit rate : 192 KbpsChannel(s) : 2 channelsSampling rate : 48.0 KHzCompression mode : LossyDelay relative to video : -232msStream size : 31.4 MiB (2%)Language : Russian
GeneralID : 1 (0x1)Complete name :HD-Life_ДНЕВНИКИ ВЕЛОСИПЕДИСТА - - Таиланд (12+)_new.tsFormat : MPEG-TSFile size : 1.77 GiBDuration : 22mn 19sOverall bit rate : 11.4 MbpsMaximum Overall bit rate : 35.5 Mbps
VideoID : 4113 (0x1011)Menu ID : 1 (0x1)Format : AVCFormat/Info : Advanced Video CodecFormat profile : High@L4.0Format settings, CABAC : YesFormat settings, ReFrames : 4 framesFormat settings, GOP : M=1, N=64Codec ID : 27Duration : 22mn 19sBit rate mode : VariableBit rate : 10.6 MbpsMaximum bit rate : 40.0 MbpsWidth : 1 920 pixelsHeight : 1 080 pixelsDisplay aspect ratio : 16:9Frame rate : 25.000 fpsStandard : ComponentColor space : YUVChroma subsampling : 4:2:0Bit depth : 8 bitsScan type : InterlacedScan order : Top Field FirstBits/(Pixel*Frame) : 0.205Stream size : 1.65 GiB (93%)Color primaries : BT.709-5, BT.1361, IEC 61966-2-4, SMPTE RP177Transfer characteristics : BT.709-5, BT.1361Matrix coefficients : BT.709-5, BT.1361, IEC 61966-2-4 709, SMPTE RP177
AudioID : 4352 (0x1100)Menu ID : 1 (0x1)Format : MPEG AudioFormat version : Version 1Format profile : Layer 2Codec ID : 4Duration : 22mn 19sBit rate mode : ConstantBit rate : 192 KbpsChannel(s) : 2 channelsSampling rate : 48.0 KHzCompression mode : LossyStream size : 30.7 MiB (2%)Language : Russian
GeneralID : 1 (0x1)Complete name :HD-Life_ДНЕВНИКИ ВЕЛОСИПЕДИСТА - - Камбоджа (12+)_new.tsFormat : MPEG-TSFile size : 1.40 GiBDuration : 22mn 24sOverall bit rate : 8 925 KbpsMaximum Overall bit rate : 35.5 Mbps
VideoID : 4113 (0x1011)Menu ID : 1 (0x1)Format : AVCFormat/Info : Advanced Video CodecFormat profile : High@L4.0Format settings, CABAC : YesFormat settings, ReFrames : 4 framesFormat settings, GOP : M=1, N=56Codec ID : 27Duration : 22mn 24sBit rate mode : VariableBit rate : 8 290 KbpsMaximum bit rate : 40.0 MbpsWidth : 1 920 pixelsHeight : 1 080 pixelsDisplay aspect ratio : 16:9Frame rate : 25.000 fpsStandard : ComponentColor space : YUVChroma subsampling : 4:2:0Bit depth : 8 bitsScan type : InterlacedScan order : Top Field FirstBits/(Pixel*Frame) : 0.160Stream size : 1.30 GiB (93%)Color primaries : BT.709-5, BT.1361, IEC 61966-2-4, SMPTE RP177Transfer characteristics : BT.709-5, BT.1361Matrix coefficients : BT.709-5, BT.1361, IEC 61966-2-4 709, SMPTE RP177
AudioID : 4352 (0x1100)Menu ID : 1 (0x1)Format : MPEG AudioFormat version : Version 1Format profile : Layer 2Codec ID : 4Duration : 22mn 23sBit rate mode : ConstantBit rate : 192 KbpsChannel(s) : 2 channelsSampling rate : 48.0 KHzCompression mode : LossyDelay relative to video : 4msStream size : 30.8 MiB (2%)Language : Russian
GeneralID : 1 (0x1)Complete name : HD-Life_ДНЕВНИКИ ВЕЛОСИПЕДИСТА - Юньнань._new.tsFormat : MPEG-TSFile size : 1.53 GiBDuration : 22mn 59sOverall bit rate : 9 528 KbpsMaximum Overall bit rate : 35.5 Mbps
VideoID : 4113 (0x1011)Menu ID : 1 (0x1)Format : AVCFormat/Info : Advanced Video CodecFormat profile : High@L4.0Format settings, CABAC : YesFormat settings, ReFrames : 4 framesFormat settings, GOP : M=1, N=56Codec ID : 27Duration : 22mn 59sBit rate mode : VariableBit rate : 8 864 KbpsMaximum bit rate : 40.0 MbpsWidth : 1 920 pixelsHeight : 1 080 pixelsDisplay aspect ratio : 16:9Frame rate : 25.000 fpsStandard : ComponentColor space : YUVChroma subsampling : 4:2:0Bit depth : 8 bitsScan type : InterlacedScan order : Top Field FirstBits/(Pixel*Frame) : 0.171Stream size : 1.42 GiB (93%)Color primaries : BT.709-5, BT.1361, IEC 61966-2-4, SMPTE RP177Transfer characteristics : BT.709-5, BT.1361Matrix coefficients : BT.709-5, BT.1361, IEC 61966-2-4 709, SMPTE RP177
AudioID : 4352 (0x1100)Menu ID : 1 (0x1)Format : MPEG AudioFormat version : Version 1Format profile : Layer 2Codec ID : 4Duration : 22mn 59sBit rate mode : ConstantBit rate : 192 KbpsChannel(s) : 2 channelsSampling rate : 48.0 KHzCompression mode : LossyDelay relative to video : -240msStream size : 31.6 MiB (2%)Language : Russian

Скриншоты

[Профиль] [ЛС]
Показать сообщения:    

Текущее время: Сегодня 14:03

Часовой пояс: GMT



Вы не можете начинать темы
Вы не можете отвечать на сообщения
Вы не можете редактировать свои сообщения
Вы не можете удалять свои сообщения
Вы не можете голосовать в опросах
Вы не можете прикреплять файлы к сообщениям
Вы не можете скачивать файлы