Дневники Вампира / Vampire Journals (1997) BDRemux 1080p | L1

 
Автор Сообщение

BOSS ®

Пол:

Стаж: 4 года 1 месяц

Сообщений: 12442

Откуда: ODESSA



Награды: 22 (Подробнее)

Mega Seeder 2 (Количество: 1) Top Keeper 1 (Количество: 1) Top Seeder 2 (Количество: 1)
Торрент-статистика

Создавать темы 11-Июл-2018 16:17

[Цитировать]

Информация о фильме
Название: Дневники Вампира
Оригинальное название: Vampire Journals
Год выхода: 1997
Жанр: ужасы, фэнтези
Режиссер: Тед Николау
В ролях: Джонатан Моррис, Дэвид Ганн, Кирстен Керре, Старр Андреефф, Илинка Гойя, Константин Барбулеску, Михай Динвейл, Дан Кондураке, Михай Никулеску, Петре Морару
О фильме: Из века в век бродит по Земле, после захода Солнца, одинокий вампир Захарий. Нигде нет ему покоя, одна мысль и цель гонят его из страны в страну. Разыскивая мастер-вампира Эша, он преследует и убивает себе подобных, беспощадно мстя за загубленную жизнь своей любимой…

Страна: Румыния, США
Продолжительность: 01:21:50
Перевод: Любительский (одгоголосый закадровый) диктор Диона R5
Субтитры: английские
Оригинальная аудиодорожка: английский
Файл
Качество: BDRemux 1080p
Видео: MPEG-4 AVC / 1920x1080 / 26953 kbps / 16:9 / 23.976 fps
Аудио 1: Русский / AC3 / 2.0 / 48 kHz / 224 kbps (диктор Диона R5)
Аудио 2: English / FLAC / 2.0 / 48 kHz / 673 kbps (Original)
Аудио 3: English / AC3 / 2.0 / 48 kHz / 320 kbps (Commentary)

Скриншоты

MediaInfo

Общее
Уникальный идентификатор : 242191547167314581180495679268805132439 (0xB63465322A20C51599DB825EB917C097)
Полное имя : Vampire.Journals.1997.BDRemux.1080p.Rus.Eng.mkv
Формат : Matroska
Версия формата : Version 4 / Version 2
Размер файла : 16,1 Гбайт
Продолжительность : 1 ч. 21 м.
Режим общего битрейта : Переменный
Общий поток : 28,2 Мбит/сек
Дата кодирования : UTC 2017-01-20 14:24:41
Программа кодирования : mkvmerge v9.2.0 ('Photograph') 32bit
Библиотека кодирования : libebml v1.3.3 + libmatroska v1.4.4
DURATION : 01:18:21.290000000
NUMBER_OF_FRAMES : 786
NUMBER_OF_BYTES : 22291
_STATISTICS_WRITING_APP : mkvmerge v9.2.0 ('Photograph') 32bit
_STATISTICS_WRITING_DATE_UTC : 2017-01-20 14:24:41
_STATISTICS_TAGS : BPS DURATION NUMBER_OF_FRAMES NUMBER_OF_BYTES
Видео
Идентификатор : 1
Формат : AVC
Формат/Информация : Advanced Video Codec
Профиль формата : High@L4.1
Параметр CABAC формата : Да
Параметр ReFrames формата : 4 кадра
Идентификатор кодека : V_MPEG4/ISO/AVC
Продолжительность : 1 ч. 21 м.
Вид битрейта : Переменный
Номинальный битрейт : 27,0 Мбит/сек
Максимальный битрейт : 35,0 Мбит/сек
Ширина : 1920 пикселей
Высота : 1080 пикселей
Соотношение сторон : 16:9
Режим частоты кадров : Постоянный
Частота кадров : 23,976 кадра/сек
Стандарт вещания : Component
Цветовое пространство : YUV
Субдискретизация насыщенности : 4:2:0
Битовая глубина : 8 бит
Тип развёртки : Прогрессивная
Бит/(Пиксели*Кадры) : 0.543
Заголовок : Vampire.Journals.1997.COMPLETE.BLURAY-VEXHD
Библиотека кодирования : x264 core 144
Настройки программы : cabac=1 / ref=4 / deblock=1:0:0 / analyse=0x3:0x113 / me=hex / subme=7 / psy=1 / psy_rd=1.00:0.00 / mixed_ref=1 / me_range=16 / chroma_me=1 / trellis=1 / 8x8dct=1 / cqm=1 / deadzone=21,11 / fast_pskip=1 / chroma_qp_offset=-2 / threads=6 / lookahead_threads=1 / sliced_threads=0 / slices=4 / nr=0 / decimate=1 / interlaced=0 / minigop=1 / stitchable=1 / constrained_intra=0 / bframes=2 / b_pyramid=0 / b_adapt=1 / b_bias=0 / direct=1 / weightb=1 / open_gop=1 / weightp=1 / keyint=24 / keyint_min=1 / scenecut=40 / intra_refresh=0 / rc_lookahead=24 / rc=2pass / mbtree=1 / bitrate=27000 / ratetol=1.0 / qcomp=0.60 / qpmin=3 / qpmax=69 / qpstep=4 / cplxblur=20.0 / qblur=0.5 / vbv_maxrate=35000 / vbv_bufsize=30000 / nal_hrd=vbr / filler=0 / ip_ratio=1.40 / aq=1:1.00
Default : Нет
Forced : Нет
Цветовой диапазон : Limited
Основные цвета : BT.709
Характеристики трансфера : BT.709
Коэффициенты матрицы : BT.709
Аудио #1
Идентификатор : 2
Формат : AC-3
Формат/Информация : Audio Coding 3
Расширение режима : CM (complete main)
Параметр Endianness формата : Big
Идентификатор кодека : A_AC3
Продолжительность : 1 ч. 21 м.
Вид битрейта : Постоянный
Битрейт : 224 Кбит/сек
Каналы : 2 канала
Расположение каналов : Front: L R
Частота : 48,0 КГц
Метод сжатия : С потерями
Размер потока : 131 Мбайт (1%)
Заголовок : VO AC3 2.0 224 kbps
Язык : Russian
Default : Нет
Forced : Нет
Аудио #2
Идентификатор : 3
Формат : FLAC
Формат/Информация : Free Lossless Audio Codec
Идентификатор кодека : A_FLAC
Продолжительность : 1 ч. 21 м.
Вид битрейта : Переменный
Каналы : 2 канала
Частота : 48,0 КГц
Битовая глубина : 16 бит
Заголовок : Original FLAC 2.0 ~673 kbps
Библиотека кодирования : libFLAC 1.2.1 (UTC 2007-09-17)
Язык : English
Default : Нет
Forced : Нет
Аудио #3
Идентификатор : 4
Формат : AC-3
Формат/Информация : Audio Coding 3
Расширение режима : CM (complete main)
Параметр Endianness формата : Big
Идентификатор кодека : A_AC3
Продолжительность : 1 ч. 21 м.
Вид битрейта : Постоянный
Битрейт : 320 Кбит/сек
Каналы : 2 канала
Расположение каналов : Front: L R
Частота : 48,0 КГц
Метод сжатия : С потерями
Размер потока : 187 Мбайт (1%)
Заголовок : Commentary AC3 2.0 320 kbps
Язык : English
Default : Нет
Forced : Нет
Текст
Идентификатор : 5
Формат : UTF-8
Идентификатор кодека : S_TEXT/UTF8
Идентификатор кодека/Информация : UTF-8 Plain Text
Язык : English
Default : Нет
Forced : Нет
Меню
00:00:00.000 : en:00:00:00.000
00:02:17.971 : en:00:02:17.971
00:13:18.297 : en:00:13:18.297
00:25:26.900 : en:00:25:26.900
00:37:33.251 : en:00:37:33.251
00:52:14.715 : en:00:52:14.715
01:07:09.776 : en:01:07:09.776
01:18:41.133 : en:01:18:41.133
[Профиль] [ЛС]
Показать сообщения:    

Текущее время: Сегодня 13:17

Часовой пояс: GMT



Вы не можете начинать темы
Вы не можете отвечать на сообщения
Вы не можете редактировать свои сообщения
Вы не можете удалять свои сообщения
Вы не можете голосовать в опросах
Вы не можете прикреплять файлы к сообщениям
Вы не можете скачивать файлы