Дитя божье / Child of God (2013) BDRip 720p | Матвеев

 
Автор Сообщение

sergej644 ®

Пол:

Стаж: 4 года 11 месяцев

Сообщений: 6041

Откуда: Soviet Union



Награды: Нет

Торрент-статистика

Создавать темы 10-Фев-2015 10:29

[Цитировать]

Информация о фильме
Название: Дитя божье
Оригинальное название: Child of God
Год выхода: 2013
Жанр: триллер, драма, криминал
Режиссер: Джеймс Франко
В ролях: Скотт Хэйз, Тим Блейк Нельсон, Джеймс Франко, Джим Пэррак, Цейра Даниэль, Винс Джоливетт, Фэллон Гудсон, Брайан Лэлли, Нина Лджети, Джереми Эмблер
О фильме:
Фильм рассказывает о вышедшем на свободу заключенном Лестере Балларде, который живет в восточном Теннесси не совсем нормальной жизнью: тут вам и некрофилия, и другие нарушения закона и морали. Постепенно Баллард превращается в жестокого пещерного человека вне социума.
ФИЛЬМ НЕ ДЛЯ СЕМЕЙНОГО ПРОСМОТРА!
ПРИСУТСТВУЕТ НЕНОРМАТИВНАЯ ЛЕКСИКА

Страна: США
Продолжительность: 01:40:00
Перевод: Авторский одноголосый, закадровый [Алексей Матвеев]
Файл
Кодек: H.264
Качество: BDRip 720p
Видео: MPEG-4 / AVC, 1280x720 (16:9), 25 fps ~ 5800 Kbps
Звук:
Аудио #1: AC3, 48 KHz 6 ch ~ 256 Kb/s (русский)
Аудио #2: AC3, 48 KHz 6 ch ~ 448 Kb/s (английский)
Субтитры: отсутствуют

MI:

Общее
Уникальный идентификатор : 240047561901244340557410077301529654497 (0xB4977A8FA3E41F488A0A0FD72D3434E1)
Полное имя : Q:TorFChild.Of.God.2013.LIMITED.720p.mkv
Формат : Matroska
Версия формата : Version 2
Размер файла : 4,55 Гбайт
Продолжительность : 1 ч. 40 м.
Общий поток : 6504 Кбит/сек
Дата кодирования : UTC 2014-09-13 03:48:39
Программа кодирования : mkvmerge v5.4.0 ('Piper') built on Mar 10 2012 13:34:39
Библиотека кодирования : libebml v1.2.3 + libmatroska v1.3.0
Видео
Идентификатор : 1
Формат : AVC
Формат/Информация : Advanced Video Codec
Профиль формата : High@L4.1
Параметр CABAC формата : Да
Параметр ReFrames формата : 5 кадров
Режим смешивания : Header stripping
Идентификатор кодека : V_MPEG4/ISO/AVC
Продолжительность : 1 ч. 40 м.
Битрейт : 5799 Кбит/сек
Ширина : 1280 пикселей
Высота : 720 пикселей
Соотношение сторон : 16:9
Частота кадров : 25,000 кадров/сек
Цветовое пространство : YUV
Субдискретизация насыщенности : 4:2:0
Битовая глубина : 8 бит
Тип развёртки : Прогрессивная
Бит/(Пиксели*Кадры) : 0.252
Размер потока : 3,96 Гбайт (87%)
Библиотека кодирования : x264 core 142 r2453 ea0ca51
Настройки программы : cabac=1 / ref=5 / deblock=1:0:0 / analyse=0x3:0x133 / me=umh / subme=7 / psy=1 / psy_rd=1.00:0.00 / mixed_ref=1 / me_range=16 /
chroma_me=1 / trellis=1 / 8x8dct=1 / cqm=0 / deadzone=21,11 / fast_pskip=0 / chroma_qp_offset=-2 / threads=12 / lookahead_threads=2 / sliced_threads=0
/ nr=0 / decimate=1 / interlaced=0 / bluray_compat=0 / constrained_intra=0 / bframes=3 / b_pyramid=2 / b_adapt=1 / b_bias=0 / direct=1 / weightb=1 /
open_gop=0 / weightp=2 / keyint=250 / keyint_min=25 / scenecut=40 / intra_refresh=0 / rc_lookahead=40 / rc=2pass / mbtree=1 / bitrate=5799 /
ratetol=1.0 / qcomp=0.60 / qpmin=0 / qpmax=69 / qpstep=4 / cplxblur=20.0 / qblur=0.5 / ip_ratio=1.40 / aq=1:1.00
Язык : English
Default : Да
Forced : Нет
Аудио #1
Идентификатор : 2
Формат : AC-3
Формат/Информация : Audio Coding 3
Расширение режима : CM (complete main)
Режим смешивания : Header stripping
Идентификатор кодека : A_AC3
Продолжительность : 1 ч. 40 м.
Вид битрейта : Постоянный
Битрейт : 256 Кбит/сек
Каналы : 6 каналов
Расположение каналов : Front: L C R, Side: L R, LFE
Частота : 48,0 КГц
Битовая глубина : 16 бит
Метод сжатия : С потерями
Размер потока : 183 Мбайт (4%)
Заголовок : Matveev
Язык : Russian
Default : Да
Forced : Нет
Аудио #2
Идентификатор : 3
Формат : AC-3
Формат/Информация : Audio Coding 3
Расширение режима : CM (complete main)
Режим смешивания : Header stripping
Идентификатор кодека : A_AC3
Продолжительность : 1 ч. 40 м.
Вид битрейта : Постоянный
Битрейт : 448 Кбит/сек
Каналы : 6 каналов
Расположение каналов : Front: L C R, Side: L R, LFE
Частота : 48,0 КГц
Битовая глубина : 16 бит
Метод сжатия : С потерями
Размер потока : 321 Мбайт (7%)
Язык : English
Default : Нет
Forced : Нет
Меню
00:00:00.000 : en:00:00:00.000
00:00:42.600 : en:00:00:42.600
00:04:15.840 : en:00:04:15.840
00:10:06.920 : en:00:10:06.920
00:15:40.600 : en:00:15:40.600
00:19:10.680 : en:00:19:10.680
00:25:38.440 : en:00:25:38.440
00:29:35.120 : en:00:29:35.120
00:32:31.920 : en:00:32:31.920
00:39:03.440 : en:00:39:03.440
00:46:00.880 : en:00:46:00.880
00:49:55.680 : en:00:49:55.680
00:54:13.920 : en:00:54:13.920
01:02:09.680 : en:01:02:09.680
01:08:52.960 : en:01:08:52.960
01:12:39.840 : en:01:12:39.840
01:16:39.240 : en:01:16:39.240
01:19:16.880 : en:01:19:16.880
01:22:48.160 : en:01:22:48.160
01:25:41.040 : en:01:25:41.040
01:35:54.600 : en:01:35:54.600
Семпл

Скриншоты

[Профиль] [ЛС]
Кто просматривает тему:

Показать сообщения:    

Текущее время: Сегодня 03:12

Часовой пояс: GMT



Вы не можете начинать темы
Вы не можете отвечать на сообщения
Вы не можете редактировать свои сообщения
Вы не можете удалять свои сообщения
Вы не можете голосовать в опросах
Вы не можете прикреплять файлы к сообщениям
Вы не можете скачивать файлы