Дискотека 80-х (2014.01.01) HDTV [H.264/1080i]

 
Автор Сообщение

sergej644 ®

Пол:

Стаж: 4 года 11 месяцев

Сообщений: 6041

Откуда: Soviet Union



Награды: Нет

Торрент-статистика

Создавать темы 02-Авг-2014 22:06

[Цитировать]

- Дискотека 80-х (2014.01.01) HDTV [H.264/1080i] - Режиссер / Телекомпания: Первый канал HD

Русское название: Дискотека 80-х
Год выпуска: 2013
Жанр: Концерт
Выпущено: Россия
Описание:
"Дискотека 80-х" - яркое и захватывающее шоу, ультрасовременная сценография, оригинальные творческие находки и, конечно же, незабываемая встреча с кумирами. Двадцать звездных имен, двадцать лучших, по мнению слушателей и команды радиостанции "Авторадио": Rick Astley, Ten Sharp, Sandra, Alphaville, Tomas Anders, Boney M, F.R. David, Pupo, Joy, Richi e Poveri, Secret Service, Savage, Eddy Huntington, Ottawan, Мираж, О. Газманов, И. Николаев, С. Минаев, В. Маркин, В. Сюткин и др.
Актеры: Олег Газманов, Игорь Николаев, Сергей Минаев, Владимир Маркин, Мираж, Ottawan
Продолжительность: 03:03:36
Видеокодек: MPEG-TS (AVC)
Качество видео: HDTV
Битрейт видео: ~12,4 Мбит/сек
Размер кадра: 1920 x 1080
Аудиокодек: MP2, 2.0ch.
Битрейт аудио: 192 kb/s

MediaInfo:

Формат : MPEG-TS
Размер файла : 17,0 Гбайт
Продолжительность : 3 ч. 3 м.
Общий поток : 13,2 Мбит/сек
Видео
Идентификатор : 305 (0x131)
Идентификатор меню : 1 (0x1)
Формат : AVC
Формат/Информация : Advanced Video Codec
Профиль формата : [url=mailto:High@L4.0]High@L4.0[/url]
Параметр CABAC формата : Да
Параметр ReFrames формата : 3 кадра
Идентификатор кодека : 27
Продолжительность : 3 ч. 3 м.
Битрейт : 12,4 Мбит/сек
Ширина : 1920 пикселей
Высота : 1080 пикселей
Соотношение сторон : 16:9
Частота кадров : 25,000 кадров/сек
Стандарт вещания : Component
Цветовое пространство : YUV
Субдискретизация насыщенности : 4:2:0
Битовая глубина : 8 бит
Тип развёртки : Чересстрочная
Порядок развёртки : Верхнее поле первое
Бит/(Пиксели*Кадры) : 0.239
Размер потока : 15,9 Гбайт (94%)
Основные цвета : BT.709-5, BT.1361, IEC 61966-2-4, SMPTE RP177
Характеристики трансфера : BT.709-5, BT.1361
Коэффициенты матрицы : BT.709-5, BT.1361, IEC 61966-2-4 709, SMPTE RP177
Аудио
Идентификатор : 405 (0x195)
Идентификатор меню : 1 (0x1)
Формат : MPEG Audio
Версия формата : Version 1
Профиль формата : Layer 2
Идентификатор кодека : 3
Продолжительность : 3 ч. 3 м.
Вид битрейта : Постоянный
Битрейт : 192 Кбит/сек
Каналы : 2 канала
Частота : 48,0 КГц
Метод сжатия : С потерями
Размер потока : 252 Мбайт (1%)
Язык : English
Скриншоты:
[Профиль] [ЛС]

Создавать темы 13-Авг-2015 12:08 (спустя 1 год)

Топик был перенесен из форума Видеоклипы в форум Сборники клипов
sergej644
 
Показать сообщения:    

Текущее время: Сегодня 16:58

Часовой пояс: GMT



Вы не можете начинать темы
Вы не можете отвечать на сообщения
Вы не можете редактировать свои сообщения
Вы не можете удалять свои сообщения
Вы не можете голосовать в опросах
Вы не можете прикреплять файлы к сообщениям
Вы не можете скачивать файлы