Дискотека / Школа танца / School Dance (Ник Кэннон / Nick Cannon) [2014, США, комедия, HDRip] VO (Виктор Береговых)

 
Автор Сообщение

Virtuoz ®

Пол:

Стаж: 5 лет 5 месяцев

Сообщений: 3



Награды: Нет

Торрент-статистика

Создавать темы 19-Авг-2014 14:23

[Цитировать]

Дискотека / Школа танца / School Dance
Страна: США
Жанр: комедия
Год выпуска: 2014
Продолжительность: 01:26:08
Перевод: Одноголосый закадровый (Виктор Береговых) - по переводу Михаила Васильева
Cубтитры: нет
Режиссер: Ник Кэннон / Nick Cannon
В ролях: Бобби Дж. Томпсон, Луэнелль, Майк Эппс, Джордж Лопес, Кэт Уильямс, Уилмер Вальдеррама
Описание: Джейсон обычный неудачник,на которого не обращают внимание девушки.Еще с раннего детства Джейсон влюблен в Анастейшу,самую красивую девушку школы,но та не замечает его.Близится ежегодная дискотека,на которой лучшие танцевальные коллективы школы выявят победителя и разыграют приз в 2000 долларов.И единственный шанс Джейсона привлечь к себе внимание Анастейши,выиграть конкурс,да к тому же деньги тоже вовсе не лишние.Отец Дэй Дэя, кузена Джейсона, проигрался в тюрьме и спихнул свой долг на сына и теперь на Дэй Дэя наезжают бандиты...(В.Береговых)
Сэмпл: https://www.sendspace.com/file/4ltt68
Качество видео: HDRip
Формат видео: AVI
Видео: XviD, 640x352 (16:9), 23.976 fps, 995 kbps avg, 0.290 bit/pixel
Аудио: AC3, 48.0 KHz, 192 Kbps, 2 channels (русский, одноголосый закадровый)
MediaInfo
Format : AVI
Format/Info : Audio Video Interleave
File size : 737 MiB
Duration : 1h 26mn
Overall bit rate : 1 197 Kbps
Writing application : VirtualDubMod 1.5.10.2 (build 2540/release)
Writing library : VirtualDubMod build 2540/release
Video
ID : 0
Format : MPEG-4 Visual
Format profile : AdvancedSimple@L5
Format settings, BVOP : Yes
Format settings, QPel : No
Format settings, GMC : No warppoints
Format settings, Matrix : Default (H.263)
Muxing mode : Packed bitstream
Codec ID : XVID
Codec ID/Hint : XviD
Duration : 1h 26mn
Bit rate : 995 Kbps
Width : 640 pixels
Height : 352 pixels
Display aspect ratio : 16:9
Frame rate : 23.976 fps
Resolution : 24 bits
Colorimetry : 4:2:0
Scan type : Progressive
Bits/(Pixel*Frame) : 0.184
Stream size : 613 MiB (83%)
Writing library : XviD 65
Audio
ID : 1
Format : AC-3
Format/Info : Audio Coding 3
Codec ID : 2000
Duration : 1h 26mn
Bit rate mode : Constant
Bit rate : 192 Kbps
Channel(s) : 2 channels
Channel positions : L R
Sampling rate : 48.0 KHz
Stream size : 118 MiB (16%)
Alignment : Split accross interleaves
Interleave, duration : 42 ms (1.00 video frame)
Interleave, preload duration : 500 ms
Скриншот c названием фильмаСкриншоты
[Профиль] [ЛС]
Показать сообщения:    

Текущее время: Сегодня 04:27

Часовой пояс: GMT



Вы не можете начинать темы
Вы не можете отвечать на сообщения
Вы не можете редактировать свои сообщения
Вы не можете удалять свои сообщения
Вы не можете голосовать в опросах
Вы не можете прикреплять файлы к сообщениям
Вы не можете скачивать файлы