(Pop) Дискомафия - На соседней улице - 2005, FLAC (image+.cue), lossless

 
Автор Сообщение

sergej644 ®

Пол:

Стаж: 4 года 11 месяцев

Сообщений: 6040

Откуда: Soviet Union



Награды: Нет

Торрент-статистика

Создавать темы 15-Дек-2014 18:09

[Цитировать]

Дискомафия«На соседней улице» Жанр: Pop
Год выпуска диска: 2005
Производитель диска: Россия
Аудио кодек:Flac
Тип рипа: image+cue
Битрейт аудио: lossless
Доп.инфо: http://www.discomafia.ru/
Трэклист:

01. По лужам
02. На соседней улице
03. Раз на раз (дуэт с Кларой Новиковой)
04. Заинька
05. NOVOгодняя! (дуэт с Юрием Гальцевым)
06. Не исчезай
07. Не бойся меня
08. Улетим
09. Море по колено (rmx ZolotoFM)
10. Не думала не знала (rmx SLIM LINE)
11. Здесь лапы у елей дрожат на весу ...
12. Не забывай

Лог

Exact Audio Copy V0.99 prebeta 5 from 4. May 2009
Отчёт EAC об извлечении, выполненном 30. декабря 2009, 20:42
Дискомафия / На соседней улице
Дисковод: ASUS DRW-1814BL Adapter: 1 ID: 0
Режим чтения : Достоверность
Использование точного потока : Да
Отключение кэша аудио : Да
Использование указателей C2 : Нет
Коррекция смещения при чтении : 6
Способность читать области Lead-in и Lead-out : Нет
Заполнение пропущенных сэмплов тишиной : Да
Удаление блоков с тишиной в начале и конце : Нет
При вычислениях CRC использовались нулевые сэмплы : Да
Интерфейс : Установленный внешний ASPI-интерфейс
Выходной формат : Внутренние WAV-операции
Формат сэмплов : 44.100 Гц; 16 бит; стерео
TOC извлечённого CD
Трек | Старт | Длительность | Начальный сектор | Конечный сектор
---------------------------------------------------------------------
1 | 0:00.00 | 3:42.24 | 0 | 16673
2 | 3:42.24 | 4:06.31 | 16674 | 35154
3 | 7:48.55 | 3:36.22 | 35155 | 51376
4 | 11:25.02 | 3:30.30 | 51377 | 67156
5 | 14:55.32 | 3:28.46 | 67157 | 82802
6 | 18:24.03 | 4:00.21 | 82803 | 100823
7 | 22:24.24 | 3:33.14 | 100824 | 116812
8 | 25:57.38 | 3:31.23 | 116813 | 132660
9 | 29:28.61 | 3:49.56 | 132661 | 149891
10 | 33:18.42 | 3:49.36 | 149892 | 167102
11 | 37:08.03 | 3:46.41 | 167103 | 184093
12 | 40:54.44 | 6:03.34 | 184094 | 211352
13 | 49:30.03 | 22:51.39 | 222753 | 325616
Характеристики диапазона извлечения и сообщения об ошибках
Выбранный диапазон
Имя файла E:\ЯФЛДУК\Дискомафия\Дискомафия - На соседней улице\Дискомафия - На соседней улице.wav
Пиковый уровень 100.0 %
Качество диапазона 100.0 %
CRC теста FDACF858
CRC копии FDACF858
Копирование... OK
Ошибок не произошло
AccurateRip: сводка
Трек 1 нет в базе данных
Трек 2 нет в базе данных
Трек 3 нет в базе данных
Трек 4 нет в базе данных
Трек 5 нет в базе данных
Трек 6 нет в базе данных
Трек 7 нет в базе данных
Трек 8 нет в базе данных
Трек 9 нет в базе данных
Трек 10 нет в базе данных
Трек 11 нет в базе данных
Трек 12 нет в базе данных
Ни одного трека нет в базе AccurateRip
Конец отчёта
[Профиль] [ЛС]

Создавать темы 13-Авг-2015 10:05 (спустя 7 месяцев 28 дней)

Топик был перенесен из форума Отечественная в форум Pop
sergej644
 
Кто просматривает тему:

Показать сообщения:    

Текущее время: Сегодня 02:46

Часовой пояс: GMT



Вы не можете начинать темы
Вы не можете отвечать на сообщения
Вы не можете редактировать свои сообщения
Вы не можете удалять свои сообщения
Вы не можете голосовать в опросах
Вы не можете прикреплять файлы к сообщениям
Вы не можете скачивать файлы