Дирижёр (Павел Лунгин) [2012, Россия, драма, BDRip 720p] Sub Rus + Original Rus

 
Автор Сообщение

TorrentFilm ®

Пол:

Стаж: 2 года

Сообщений: 7741



Награды: Нет

Торрент-статистика

Создавать темы 01-Янв-2016 00:06

[Цитировать]

Дирижёр
Страна: Россия
Студия: Pavel Lungin Studio
Жанр: драма
Год выпуска: 2012
Продолжительность: 01:26:39-Перевод: Не требуется
Cубтитры: русские
Оригинальная аудиодорожка: русский-Режиссер: Павел Лунгин
В ролях: Владас Багдонас, Карэн Бадалов, Дарья Мороз, Сергей Колтаков, Ольга Оболдина, Инга Стрелкова-Оболдина, Сергей Барковский, Арсений Спасибо, Всеволод Спасибо-Описание: Дирижер отправляется со своим оркестром в Иерусалим, чтобы исполнить ораторию «Страсти по Матфею». Но гастроли оборачиваются трагедией. Черное солнце Иерусалима срывает с главного героя маску благополучного художника, заставляет увидеть себя в беспощадной наготе эгоизма и жестокости. Иногда за 3 дня человек может полностью переоценить и переосмыслить свою жизнь. Меняться никогда не поздно.-- | IMDB | kinopoisk | Сэмпл | Source vs Encode--Дополнительно: Cохранены оригинальные чаптеры как на Blu-ray-Тип релиза: BDRip 720p | Kim |
Контейнер: MKV-Видео: 4174 kb/s, 1280x544, x264, 24,000 fps
Аудио: DTS, 1536 kb/s, 5.1, 48.0 kHz
-

Скриншоты

NFO

..............................::::::::::Log::::::::::.......................................
-[NoImage] x264 [info]: frame I:782 Avg QP:14.04 size:112117
-[NoImage] x264 [info]: frame P:28350 Avg QP:15.57 size: 48493
-[NoImage] x264 [info]: frame B:100765 Avg QP:19.17 size: 13453
-[NoImage] x264 [info]: consecutive B-frames: 2.1% 2.0% 8.8% 20.3% 13.1% 46.1% 3.6% 1.1% 2.0% 0.9%

Общее
Полное имя : Dirijer.2012.O.BDRip.720p.x264.IRONCLUB.mkv
Формат : Matroska
Версия формата : Version 2
Размер файла : 3,58 Гбайт
Продолжительность : 1 ч. 30 м.
Общий поток : 5677 Кбит/сек
Название фильма : Rip by Kim
Дата кодирования : UTC 2012-05-04 10:23:14
Программа кодирования : mkvmerge v5.3.0 ('I could have danced') built on Feb 9 2012 10:38:07
Библиотека кодирования : libebml v1.2.3 + libmatroska v1.3.0
Видео
Идентификатор : 1
Формат : AVC
Формат/Информация : Advanced Video Codec
Профиль формата : High@L4.1
Параметр CABAC формата : Да
Параметр ReFrames формата : 12 кадров
Идентификатор кодека : V_MPEG4/ISO/AVC
Продолжительность : 1 ч. 30 м.
Битрейт : 4174 Кбит/сек
Ширина : 1280 пикселей
Высота : 544 пикселя
Соотношение сторон : 2,35:1
Частота кадров : 24,000 кадра/сек
Цветовое пространство : YUV
Субдискретизация насыщенности : 4:2:0
Битовая глубина : 8 бит
Тип развёртки : Прогрессивная
Бит/(Пиксели*Кадры) : 0.250
Размер потока : 2,55 Гбайт (71%)
Заголовок : ..........::::IRONCLUB::::..........
Библиотека кодирования : x264 core 120 r2164 da19765
Настройки программы : cabac=1 / ref=12 / deblock=1:-3:-3 / analyse=0x3:0x133 / me=umh / subme=11 / psy=1 / psy_rd=0.90:0.00 / mixed_ref=1 / me_range=32 / chroma_me=1 / trellis=2 / 8x8dct=1 / cqm=0 / deadzone=21,11 / fast_pskip=0 / chroma_qp_offset=-2 / threads=12 / sliced_threads=0 / nr=0 / decimate=1 / interlaced=0 / bluray_compat=0 / constrained_intra=0 / bframes=9 / b_pyramid=2 / b_adapt=2 / b_bias=0 / direct=3 / weightb=1 / open_gop=0 / weightp=2 / keyint=240 / keyint_min=22 / scenecut=40 / intra_refresh=0 / rc_lookahead=40 / rc=2pass / mbtree=1 / bitrate=4174 / ratetol=1.0 / qcomp=0.60 / qpmin=0 / qpmax=69 / qpstep=4 / cplxblur=20.0 / qblur=0.5 / vbv_maxrate=50000 / vbv_bufsize=62500 / nal_hrd=none / ip_ratio=1.40 / aq=2:1.00
Язык : English
Default : Да
Forced : Нет
Аудио
Идентификатор : 2
Формат : DTS
Формат/Информация : Digital Theater Systems
Идентификатор кодека : A_DTS
Продолжительность : 1 ч. 30 м.
Вид битрейта : Постоянный
Битрейт : 1510 Кбит/сек
Каналы : 6 каналов
Расположение каналов : Front: L C R, Side: L R, LFE
Частота : 48,0 КГц
Битовая глубина : 24 бит
Метод сжатия : С потерями
Размер потока : 974 Мбайт (27%)
Заголовок : DTS, 1510 kb/s (6 ch)
Язык : Russian
Default : Да
Forced : Нет
Текст
Идентификатор : 3
Формат : UTF-8
Идентификатор кодека : S_TEXT/UTF8
Идентификатор кодека/Информация : UTF-8 Plain Text
Язык : Russian
Default : Нет
Forced : Нет
Меню
00:00:00.000 : en:00:00:00.000
00:08:16.500 : en:00:08:16.500
00:15:24.792 : en:00:15:24.792
00:23:10.625 : en:00:23:10.625
00:31:18.500 : en:00:31:18.500
00:39:03.667 : en:00:39:03.667
00:46:48.708 : en:00:46:48.708
00:54:24.083 : en:00:54:24.083
01:02:41.167 : en:01:02:41.167
01:10:40.292 : en:01:10:40.292
01:18:47.667 : en:01:18:47.667
01:27:36.875 : en:01:27:36.875
[Профиль] [ЛС]
Показать сообщения:    

Текущее время: Сегодня 18:16

Часовой пояс: GMT



Вы не можете начинать темы
Вы не можете отвечать на сообщения
Вы не можете редактировать свои сообщения
Вы не можете удалять свои сообщения
Вы не можете голосовать в опросах
Вы не можете прикреплять файлы к сообщениям
Вы не можете скачивать файлы