Динозавр / Dinosaur (2000) BDRip 1080p

 
Автор Сообщение

sergej644 ®

Пол:

Стаж: 4 года 11 месяцев

Сообщений: 6038

Откуда: Soviet Union



Награды: Нет

Торрент-статистика

Создавать темы 15-Фев-2015 11:53

[Цитировать]

Информация о фильме
Название: Динозавр
Оригинальное название: Dinosaur
Год выхода: 2000
Жанр: мультфильм, триллер, приключения, семейный
Режиссер: Эрик Лейтон, Ральф Зондаг
В ролях: Д.Б. Суини, Элфри Вудард, Осси Дэвис, Макс Каселла, Хайден Панеттьери, Сэмюэл Э. Райт, Джулианна Маргулис, Питер Сирагуса, Джоан Плаурайт, Делла Риз
О фильме: Путешествие трехтонного игуанодонта по имени Аладар, который был разбужен из своего яйца племенем лемуров и случайно воссоединившегося с себе подобными. Из-за огненных метеоритов, разрушающих ландшафт и нехватки воды в исчезающих водоемах динозавры оказались в гонке за выживание, где главным их противником стало время.
Аладар наживает себе врага в лице бессердечного вожака Крона, когда заступается за беззащитных животных в несущемся сломя голову стаде. Лицом к лицу с такими опасностями, как внезапные оползни и атакующие тиранозавры, Аладар и его новые друзья должны преодолеть невероятные трудности до того, как обретут новую родину в прекрасной долине…

Выпущено: Walt Disney Pictures
Продолжительность: 01:22:00
Перевод: Дублированный
Файл
Кодек: x264
Качество: BDRip (источник: Blu-ray Disc)
Видео: 1920x1040 (16:9), 23.976 fps, 6993 kbps
Звук: 48 kHz, AC-3, 6 ch, 640 kbps
Субтитры: Русские, Английские
Скачать: сэмплСкриншоты

MI

Общее
Уникальный идентификатор : 239456327582569392381277420533103270833 (0xB4259C75672834E3A6242F7856D91BB1)
Полное имя : Dinosaur.2000.BDRip.1080p.Rus.mkv
Формат : Matroska
Версия формата : Version 2
Размер файла : 4,37 Гбайт
Продолжительность : 1 ч. 22 м.
Общий поток : 7624 Кбит/сек
Дата кодирования : UTC 2011-09-25 13:22:21
Программа кодирования : mkvmerge v4.0.0 ('The Stars were mine') сборка от Jun 6 2010 16:18:42
Библиотека кодирования : libebml v1.0.0 + libmatroska v1.0.0
Видео
Идентификатор : 1
Формат : AVC
Формат/Информация : Advanced Video Codec
Профиль формата : High@L4.1
Параметр CABAC формата : Да
Параметр ReFrames формата : 4 кадра
Идентификатор кодека : V_MPEG4/ISO/AVC
Продолжительность : 1 ч. 22 м.
Битрейт : 6993 Кбит/сек
Ширина : 1920 пикселей
Высота : 1040 пикселей
Соотношение сторон : 16:9
Частота кадров : 23,976 кадра/сек
Цветовое пространство : YUV
Субдискретизация насыщенности : 4:2:0
Битовая глубина : 8 бит
Тип развёртки : Прогрессивная
Бит/(Пиксели*Кадры) : 0.146
Размер потока : 3,92 Гбайт (90%)
Библиотека кодирования : x264 core 118 r2085 8a62835
Настройки программы : cabac=1 / ref=4 / deblock=1:-3:-3 / analyse=0x3:0x133 / me=umh / subme=10 / psy=1 / psy_rd=1.00:0.00 / mixed_ref=1 / me_range=32 / chroma_me=1 / trellis=2 / 8x8dct=1 / cqm=0 / deadzone=21,11 / fast_pskip=0 / chroma_qp_offset=-2 / threads=12 / sliced_threads=0 / nr=0 / decimate=0 / interlaced=0 / bluray_compat=0 / constrained_intra=0 / bframes=2 / b_pyramid=2 / b_adapt=2 / b_bias=0 / direct=3 / weightb=1 / open_gop=0 / weightp=2 / keyint=240 / keyint_min=24 / scenecut=40 / intra_refresh=0 / rc_lookahead=60 / rc=2pass / mbtree=1 / bitrate=6993 / ratetol=1.0 / qcomp=0.60 / qpmin=0 / qpmax=69 / qpstep=4 / cplxblur=20.0 / qblur=0.5 / ip_ratio=1.40 / aq=1:1.00
Язык : English
Аудио
Идентификатор : 2
Формат : AC-3
Формат/Информация : Audio Coding 3
Расширение режима : CM (complete main)
Идентификатор кодека : A_AC3
Продолжительность : 1 ч. 22 м.
Вид битрейта : Постоянный
Битрейт : 640 Кбит/сек
Каналы : 6 каналов
Расположение каналов : Front: L C R, Side: L R, LFE
Частота : 48,0 КГц
Битовая глубина : 16 бит
Метод сжатия : С потерями
Размер потока : 376 Мбайт (8%)
Язык : Russian
Текст #1
Идентификатор : 3
Формат : UTF-8
Идентификатор кодека : S_TEXT/UTF8
Идентификатор кодека/Информация : UTF-8 Plain Text
Язык : Russian
Текст #2
Идентификатор : 4
Формат : UTF-8
Идентификатор кодека : S_TEXT/UTF8
Идентификатор кодека/Информация : UTF-8 Plain Text
Язык : English
Меню
00:00:00.000 : :Chapter 01
00:07:54.557 : :Chapter 02
00:15:49.114 : :Chapter 03
00:23:43.672 : :Chapter 04
00:31:38.271 : :Chapter 05
00:39:26.822 : :Chapter 06
00:47:09.368 : :Chapter 07
00:54:51.955 : :Chapter 08
01:01:46.452 : :Chapter 09
01:08:46.956 : :Chapter 10
01:15:39.535 : :Chapter 11
01:21:59.873 : :Chapter 12

x264

x264 [info]: frame I:1343 Avg QP:14.14 size:179148
x264 [info]: frame P:44688 Avg QP:17.14 size: 60245
x264 [info]: frame B:71929 Avg QP:21.10 size: 18997
[Профиль] [ЛС]
Кто просматривает тему:

Форум Тема Автор Размер
Animal Planet Animal Planet: Земля динозавров / When Dinosaurs Ruled (Jurassica) [сезон 1 серии 1-5 из 5] (Тони Митчелл, Саймон Ллойд, Дэвид Тибблс) [1999 г., Документальный, научно-познавательный, и... skorpionN 7.34 GB
Документальные HD BBC. Планета динозавров: Совершенные убийцы / Planet Dinosaur: Ultimate Killers (2012) BDRip-AVC от -=HD-NET=- Белочка 877 MB
Зарубежные мультфильмы Динозавр / Dinosaur (2000) BDRip-AVC | D, P2 sergej644 1.46 GB
Внежанровая документалистика Динозавр 13 / Dinosaur 13 (Тодд Дуглас Миллер / Todd Douglas Miller) [2014 г., Документальный, драма, SATRip] skorpionN 1.26 GB
Фантастика и фэнтези Евгений Филенко – Шествие динозавров (2016) MP3 Swager 608 MB
Научная и техническая литература Елена Рощина, Мира Филиппова - Динозавры (2016) PDF достали все 24 MB
Фильмы 2015 года Ковбои против динозавров / Cowboys vs Dinosaurs (2015) DVDRip | L1 достали все 748 MB
Фильмы 2015 года Ковбои против динозавров / Cowboys vs Dinosaurs (2015) HDRip | L1 достали все 1.46 GB
Показать сообщения:    

Текущее время: Сегодня 18:02

Часовой пояс: GMT



Вы не можете начинать темы
Вы не можете отвечать на сообщения
Вы не можете редактировать свои сообщения
Вы не можете удалять свои сообщения
Вы не можете голосовать в опросах
Вы не можете прикреплять файлы к сообщениям
Вы не можете скачивать файлы