Динозавр 13 / Dinosaur 13 (Тодд Дуглас Миллер / Todd Douglas Miller) [2014 г., Документальный, драма, SATRip]

 
Автор Сообщение

skorpionN ®

Пол:

Стаж: 2 года 7 месяцев

Сообщений: 834



Награды: 4 (Подробнее)

Mega Seeder 2 (Количество: 1) Top Releaser 2 (Количество: 1) Mega Seeder 3 (Количество: 1)
Торрент-статистика

Создавать темы 19-Июл-2015 10:05

[Цитировать]

Динозавр 13 / Dinosaur 13
Год выпуска: 2014
Страна: США, Statement Pictures
Жанр: Документальный, драма
Продолжительность: 01:30:13
Перевод: Профессиональный (многоголосый, закадровый)
Режиссер: Тодд Дуглас Миллер / Todd Douglas Miller
В ролях: Stan Adelstein, Lanice Archer, Джек Хорнер, Роберт Баккер, Филип Карри, Тимоти Ларсон, Kristin Donnan, Фил Мэннинг, Кейт Нельсон, Луи Психойос, Патрик Даффи, Билл Хэрлан, Bruce Ellison, Denise Etzkorn, Bob Farrar
Описание: В 1990 году палеонтолог Питер Ларсен и его коллеги из института Блэк-Хиллс обнаружили полностью сохранившийся скелет тираннозавра. Эту находку можно было справедливо назвать событием века. Однако, дальнейшие исследования осложнились из-за разногласий с правительством, музеями и сообществами коренных жителей Америки. Так попытка отстоять свою находку обернулась для ученых борьбой за свои права и свободу.
Доп. информация: Гран-при в категории «Документальный фильм»
Качество: SATRip
Формат: AVI
Видео кодек: XviD
Аудио кодек: AC3
Видео: 720x400 25fps 1800kbps
Аудио: AC3 2ch, 48kHz, 192 kbps

Скриншоты


MediaInfo:

Format : AVI
Format/Info : Audio Video Interleave
File size : 1.26 GiB
Duration : 1h 30mn
Overall bit rate : 2 002 Kbps
Writing application : VirtualDubMod 1.5.10.3 | www.virtualdub-fr.org || (build 2550/release)
Writing library : VirtualDubMod build 2550/release
Video
ID : 0
Format : MPEG-4 Visual
Format profile : Advanced Simple@L5
Format settings, BVOP : 3
Format settings, QPel : Yes
Format settings, GMC : 3 warppoints
Format settings, Matrix : Default (H.263)
Codec ID : XVID
Codec ID/Hint : XviD
Duration : 1h 30mn
Bit rate : 1 800 Kbps
Width : 720 pixels
Height : 400 pixels
Display aspect ratio : 16:9
Frame rate : 25.000 fps
Color space : YUV
Chroma subsampling : 4:2:0
Bit depth : 8 bits
Scan type : Progressive
Compression mode : Lossy
Bits/(Pixel*Frame) : 0.250
Stream size : 1.13 GiB (90%)
Writing library : XviD 1.2.1 (UTC 2008-12-04)
Audio
ID : 1
Format : AC-3
Format/Info : Audio Coding 3
Mode extension : CM (complete main)
Format settings, Endianness : Big
Codec ID : 2000
Duration : 1h 30mn
Bit rate mode : Constant
Bit rate : 192 Kbps
Channel(s) : 2 channels
Channel positions : Front: L R
Sampling rate : 48.0 KHz
Compression mode : Lossy
Stream size : 124 MiB (10%)
Alignment : Split accross interleaves
Interleave, duration : 40 ms (1.00 video frame)
Interleave, preload duration : 500 ms
[Профиль] [ЛС]
Кто просматривает тему:

Форум Тема Автор Размер
Animal Planet Animal Planet: Земля динозавров / When Dinosaurs Ruled (Jurassica) [сезон 1 серии 1-5 из 5] (Тони Митчелл, Саймон Ллойд, Дэвид Тибблс) [1999 г., Документальный, научно-познавательный, и... skorpionN 7.34 GB
Документальные HD BBC. Планета динозавров: Совершенные убийцы / Planet Dinosaur: Ultimate Killers (2012) BDRip-AVC от -=HD-NET=- Белочка 877 MB
BBC BBC: Horizon. Мой домашний динозавр / My Pet Dinosaur [сезон 43 эпизод 8] (Mark Everest) [2007 г., Документальный, археология, история, исследования, DVB] skorpionN 1.01 GB
Доисторический мир BBC: Прогулки с динозаврами / Walking with Dinosaurs [серии 1-6 из 6] (Тим Хайнс, Джаспер Джеймс) [1999 г., Документальный, история, археология, динозавры, HDTVRip-AVC 720p] skorpionN 5.93 GB
Доисторический мир BBC: Прогулки с динозаврами: Баллада о большом Але (спецвыпуск) / Walking With Dinosaurs: The Ballad Of Big Al [серии 1-2 из 2] (Кейт Бартлетт, Майкл Олмерт) [2000 г., Документальный, и... skorpionN 1.97 GB
Зарубежные мультфильмы Динозавр / Dinosaur (2000) BDRip 1080p sergej644 4.37 GB
Зарубежные мультфильмы Динозавр / Dinosaur (2000) BDRip-AVC | D, P2 sergej644 1.46 GB
Фантастика и фэнтези Евгений Филенко – Шествие динозавров (2016) MP3 Swager 608 MB
Показать сообщения:    

Текущее время: Сегодня 11:07

Часовой пояс: GMT



Вы не можете начинать темы
Вы не можете отвечать на сообщения
Вы не можете редактировать свои сообщения
Вы не можете удалять свои сообщения
Вы не можете голосовать в опросах
Вы не можете прикреплять файлы к сообщениям
Вы не можете скачивать файлы