Динамо. Невероятный иллюзионист / Dynamo. Magician Impossible (2013) HDTVRip (Сезон 3, выпуск 1-4 из 4)

 
Автор Сообщение

sergej644 ®

Пол:

Стаж: 4 года 11 месяцев

Сообщений: 6045

Откуда: Soviet Union



Награды: Нет

Торрент-статистика

Создавать темы 24-Ноя-2014 20:20

[Цитировать]

-Динамо. Невероятный иллюзионист / Dynamo. Magician Impossible (2013) HDTVRip (Сезон 3, выпуск 1-4 из 4)- Режиссер / Телекомпания: Watch HD
Русское название: Динамо. Невероятный иллюзионист
Оригинальное название: Dynamo. Magician Impossible
Год выпуска: 2013
Жанр: Познавательное шоу
Выпущено: Великобритания, Phil McIntyre Television, Inner Circle Films
Описание:
Самый блестящий "волшебник" Британии начинает 3 сезон своего шоу. Вы верите в чудеса? Тогда новая программа Discovery Channel «Динамо: невероятный иллюзионист» предназначена именно для вас: трюки, которые устраивает британский фокусник Динамо, сложно объяснить одной лишь ловкостью рук.
Режиссер: Саймон Динселл
Актеры: Стивен Фрейн (Динамо), Мэтью Хорн, Кимберли Уайатт, Ян Браун, Ноэль Филдинг, Джессика Лаундес, Принц Чарльз, Роберт Шиэн, Трей Сонгз
Озвучено: студией «VSI»
Перевод: Профессиональный (одноголосый, закадровый)
Продолжительность: Каждая серия х 00:45:00
Видеокодек: XviD
Битрейт видео: ~1650 Кбит/сек
Размер кадра: 704 x 400
Качество видео: HDTVRip
Аудио (русский): MP3, 2ch., 128 Кбит/сек

MediaInfo:

Формат : AVI
Формат/Информация : Audio Video Interleave
Размер файла : 551 Мбайт
Продолжительность : 43 м.
Общий поток : 1786 Кбит/сек
Программа кодирования : MEncoder SVN-r33883(20110719-gcc4.5.2)
Библиотека кодирования : VirtualDub build 32842/release
Видео
Идентификатор : 0
Формат : MPEG-4 Visual
Профиль формата : Simple@L5
Параметр BVOP формата : Нет
Параметр QPel формата : Нет
Параметр GMC формата : Без точки перехода
Параметр матрицы формата : Default (H.263)
Идентификатор кодека : XVID
Идентификатор кодека/Подсказка : XviD
Продолжительность : 43 м.
Битрейт : 1649 Кбит/сек
Ширина : 704 пикселя
Высота : 400 пикселей
Соотношение сторон : 16:9
Частота кадров : 23,976 кадра/сек
Цветовое пространство : YUV
Субдискретизация насыщенности : 4:2:0
Битовая глубина : 8 бит
Тип развёртки : Прогрессивная
Метод сжатия : С потерями
Бит/(Пиксели*Кадры) : 0.244
Размер потока : 508 Мбайт (92%)
Библиотека кодирования : XviD 64
Аудио
Идентификатор : 1
Формат : MPEG Audio
Версия формата : Version 1
Профиль формата : Layer 3
Режим : Joint stereo
Расширение режима : MS Stereo
Идентификатор кодека : 55
Идентификатор кодека/Подсказка : MP3
Продолжительность : 43 м.
Вид битрейта : Постоянный
Битрейт : 128 Кбит/сек
Каналы : 2 канала
Частота : 44,1 КГц
Метод сжатия : С потерями
Размер потока : 39,4 Мбайт (7%)
Выравнивание : Разделение по промежуткам
Продолжительность промежутка : 42 мс. (1,00 видеокадр)
Время предзагрузки промежутка : 501 мс.
-Скриншоты:-

Скриншоты

Время раздачи: 24/7. До первых 5 скачавших.
[Профиль] [ЛС]
Кто просматривает тему:

Форум Тема Автор Размер
Rock (Russian Rock) Кузьмин и гр.Динамик - Лучшее (2CD) - 1982 [FLAC, image+.cue, lossless] sergej644 552 MB
Разное КХЛ 14/15, РЧ: Динамо (Минск) - Атлант [12.09.2014, Хоккей, SD/MPEG-TS/RU] sergej644 1.43 GB
Разное КХЛ 14/15, РЧ: Динамо М - ЦСКА [05.09.2014, Хоккей, SATRip/H264/50 fps/SR/Sport Klub 1] sergej644 1.21 GB
Хоккей КХЛ 15/16, РЧ: Динамо Минск - Динамо Рига [30.08.2015, хоккей, HDStr/1080p/RU/КХЛ ТВ] sergej644 2.49 GB
Лига Европы Футбол. Лига Европы. 2014/15. 1/16 финала. Первый матч. Андерлехт (Бельгия) - Динамо (Россия) [19.02] (2015) SATRip sergej644 1.46 GB
Футбол Футбол. Лига Европы. 2014/15. 1/8 финала. Наполи (Италия) - Динамо М (Россия) [12.03] (2015) HDTVRip 720p | 50 fps sergej644 3.2 GB
Футбол Футбол. Лига Европы. 2014/15. 1/8 финала. Ответный матч. Динамо К (Украина) - Эвертон (Англия) [19.03] (2015) HDTVRip 720p sergej644 2.52 GB
Футбол Футбол. Лига Европы. 2014/15. 1/8 финала. Ответный матч. Динамо М (Россия) - Наполи (Италия) [19.03] (2015) HDTVRip 720p | 50 fps sergej644 3.43 GB
Показать сообщения:    

Текущее время: Сегодня 18:21

Часовой пояс: GMT



Вы не можете начинать темы
Вы не можете отвечать на сообщения
Вы не можете редактировать свои сообщения
Вы не можете удалять свои сообщения
Вы не можете голосовать в опросах
Вы не можете прикреплять файлы к сообщениям
Вы не можете скачивать файлы