Диллинджер / Dillinger (1973) BDRip 1080p от MediaClub | P

 
Автор Сообщение

Russian Mafia ®

Пол:

Стаж: 1 год 8 месяцев

Сообщений: 4260



Награды: 10 (Подробнее)

Mega Seeder 1 (Количество: 1) Top Releaser 3 (Количество: 1) Mega Seeder 3 (Количество: 1)
Торрент-статистика

Создавать темы 29-Июл-2016 14:52

[Цитировать]

Информация о фильме
Название: Диллинджер
Оригинальное название: Dillinger
Год выхода: 1973
Жанр: Боевик, драма, криминал, биография
Режиссер: Джон Милиус
В ролях: Уоррен Оутс, Бен Джонсон, Мишель Филлипс, Клорис Личмен, Гарри Дин Стэнтон, Джеффри Льюис, Джон П. Райан, Ричард Дрейфусс, Стив Кэнэли, Джон Мартино, Рой Дженсон, Рид Морган, Фрэнк МакРей, Дэвид Дорр, Роланд Боб Харрис
О фильме:
Действие фильма охватывает период с июня 1933 по июль 1934 гг. и рассказывает о судьбе знаменитого гангстера Джона Герберта Диллинджера, грабившего банки на Среднем Западе США. В центре сюжета — противостояние Диллинджера и специального агента ФБР Мэлвина Пёрвиса.

Страна: США
Студия: American International Pictures (AIP)
Продолжительность: 01:47:19
Перевод: Профессиональный многоголосый
Файл
Кодек: h.264
Качество: BDRip 1080p
Видео: MPEG-4 AVC, 15700 Кбит/с, 1920x1040, 23.976 кадр/с
Звук:
Русский (AC3, 2 ch, 192 Кбит/с) / Профессиональный многоголосый (5 канал)
Английский (DTS, 1 ch, 768 Кбит/с)
Субтитры: Русские, английские
Семпл

О релизе

Автор релиза - Silverok, За BDRemux спасибо pyha
Субтитры: S_TEXT/UTF8 (SRT) - Русские, английские
Спасибо cinefil за запись перевода 5 канала, Pin-uncle за перевод субтитров.

MI

Общее
Уникальный идентификатор : 184070204060125696293533896641001541595 (0x8A7AA1BCC90F9341B72942F3671FCFDB)
Полное имя : D:uTorrentDillinger.1973.BDRip.1080p.MediaClub.mkv
Формат : Matroska
Версия формата : Version 4 / Version 2
Размер файла : 12,5 Гбайт
Продолжительность : 1 ч. 47 м.
Общий поток : 16,7 Мбит/сек
Дата кодирования : UTC 2016-07-28 08:47:32
Программа кодирования : mkvmerge v9.3.1 ('Mask Machine') 64bit
Библиотека кодирования : libebml v1.3.4 + libmatroska v1.4.5
Видео
Идентификатор : 1
Формат : AVC
Формат/Информация : Advanced Video Codec
Профиль формата : High@L4.1
Параметр CABAC формата : Да
Параметр ReFrames формата : 4 кадра
Идентификатор кодека : V_MPEG4/ISO/AVC
Продолжительность : 1 ч. 47 м.
Битрейт : 15,7 Мбит/сек
Ширина : 1920 пикселей
Высота : 1040 пикселей
Соотношение сторон : 1,85:1
Режим частоты кадров : Постоянный
Частота кадров : 23,976 (24000/1001) кадра/сек
Цветовое пространство : YUV
Субдискретизация насыщенности : 4:2:0
Битовая глубина : 8 бит
Тип развёртки : Прогрессивная
Бит/(Пиксели*Кадры) : 0.328
Размер потока : 11,8 Гбайт (94%)
Заголовок : BDRip by Silverok
Библиотека кодирования : x264 core 148 r2638 7599210
Настройки программы : cabac=1 / ref=4 / deblock=1:-3:-3 / analyse=0x3:0x113 / me=umh / subme=11 / psy=1 / psy_rd=1.00:0.00 / mixed_ref=1 / me_range=32 / chroma_me=1 / trellis=2 / 8x8dct=1 / cqm=0 / deadzone=21,11 / fast_pskip=1 / chroma_qp_offset=-2 / threads=12 / lookahead_threads=3 / sliced_threads=0 / nr=0 / decimate=1 / interlaced=0 / bluray_compat=0 / constrained_intra=0 / bframes=12 / b_pyramid=2 / b_adapt=2 / b_bias=0 / direct=3 / weightb=1 / open_gop=0 / weightp=2 / keyint=240 / keyint_min=24 / scenecut=40 / intra_refresh=0 / rc=2pass / mbtree=0 / bitrate=15717 / ratetol=1.0 / qcomp=0.60 / qpmin=0 / qpmax=69 / qpstep=4 / cplxblur=20.0 / qblur=0.5 / ip_ratio=1.40 / pb_ratio=1.30 / aq=1:1.00
Default : Да
Forced : Нет
Аудио #1
Идентификатор : 2
Формат : AC-3
Формат/Информация : Audio Coding 3
Расширение режима : CM (complete main)
Параметр Endianness формата : Big
Идентификатор кодека : A_AC3
Продолжительность : 1 ч. 47 м.
Вид битрейта : Постоянный
Битрейт : 192 Кбит/сек
Каналы : 2 канала
Расположение каналов : Front: L R
Частота : 48,0 КГц
Частота кадров : 31,250 кадров/сек (1536 spf)
Метод сжатия : С потерями
Размер потока : 147 Мбайт (1%)
Заголовок : Многоголосый закадровый (5 канал)
Язык : Russian
Default : Да
Forced : Нет
Аудио #2
Идентификатор : 3
Формат : DTS
Формат/Информация : Digital Theater Systems
Режим : 16
Параметр Endianness формата : Big
Идентификатор кодека : A_DTS
Продолжительность : 1 ч. 47 м.
Вид битрейта : Постоянный
Битрейт : 768 Кбит/сек
Каналы : 1 канал
Расположение каналов : Front: C
Частота : 48,0 КГц
Частота кадров : 93,750 кадра/сек (512 spf)
Битовая глубина : 24 бит
Метод сжатия : С потерями
Размер потока : 590 Мбайт (5%)
Язык : English
Default : Нет
Forced : Нет
Текст #1
Идентификатор : 4
Формат : UTF-8
Идентификатор кодека : S_TEXT/UTF8
Идентификатор кодека/Информация : UTF-8 Plain Text
Продолжительность : 1 ч. 47 м.
Битрейт : 75 бит/сек
Count of elements : 957
Размер потока : 59,1 Кбайт (0%)
Язык : Russian
Default : Да
Forced : Нет
Текст #2
Идентификатор : 5
Формат : UTF-8
Идентификатор кодека : S_TEXT/UTF8
Идентификатор кодека/Информация : UTF-8 Plain Text
Продолжительность : 1 ч. 47 м.
Битрейт : 46 бит/сек
Count of elements : 1036
Размер потока : 36,8 Кбайт (0%)
Язык : English
Default : Нет
Forced : Нет

Скриншоты

[Профиль] [ЛС]
Показать сообщения:    

Текущее время: Сегодня 12:10

Часовой пояс: GMT



Вы не можете начинать темы
Вы не можете отвечать на сообщения
Вы не можете редактировать свои сообщения
Вы не можете удалять свои сообщения
Вы не можете голосовать в опросах
Вы не можете прикреплять файлы к сообщениям
Вы не можете скачивать файлы