Дилер: Трилогия / Pusher: Trilogy (1996 - 2005) BDRip 720p | P, A, L1

 
Автор Сообщение

достали все ®

Пол:

Стаж: 1 год 8 месяцев

Сообщений: 6581



Награды: 12 (Подробнее)

За внесенный вклад в развитие сайта (Количество: 1) Mega Seeder 4 (Количество: 1) Mega Releaser 1 (Количество: 1)
Торрент-статистика

Создавать темы 26-Авг-2016 03:22

[Цитировать]

Дилер: ТрилогияPusher: Trilogy- Страна: Дания
Жанр: триллер, криминал
Год выпуска: 1996 - 2005-Режиссер: Николас Виндинг Рефн / Nicolas Winding Refn-Описание: «Дилер» — трилогия фильмов датского режиссёра и сценариста Николаса Виндинга Рефна, «микроэпическая документальная драма о наркосцене Копенгагена».
Первая картина цикла, снятая начинающим режиссёром на скромный бюджет при помощи ручной камеры, была с восторгом принята в Европе и обрела культовый статус в родной стране Рефна.
Второй фильм, ставший наиболее драматичной частью трилогии, был тепло встречен критикой и получил ряд кинопремий стран Северной Европы.
Заключительная часть серии, тяготеющая к эстетике чёрного юмора, хоть и не была отмечена призами, но славилась кинокритиками не менее предыдущих.
-

Дилер / Pusher (1996) | P, A, L1

ДилерPusher«You don't have a chance. Seize it!»- Продолжительность: 01:50:08
Перевод: Профессиональный (многоголосный, закадровый), Авторский, 2 х Любительский (одноголосый, закадровый)
Субтитры: русские, английские-В ролях: Ким Бодния, Златко Бурич, Лаура Драсбек, Славко Лабович, Мадс Миккельсен, Петер Андерссон, Ваня Байичич, Лизабет Расмуссен, Левино Йенсен, Томас Бо Ларсен-Описание: У Франка, профессионального «пушера» — так называют мелких уличных торговцев наркотиками — крупные неприятности. Он должен 50 тыс. своим поставщикам-югославам, а вдобавок к этому во время продажи героина приезжим шведам налетела полиция, и весь товар, взятый в долг, пришлось выбросить в пруд.
Друг Тонни, с кем они вместе работали, во всем признался полиции. Но товар выброшен, улик нет, и Франка выпустили. Теперь его долг поставщику Мило — 180 тыс. Франк любит проститутку Вик, красивую девушку, но безнадежную наркоманку. Кроме нее, пожалуй, ничего хорошего в жизни Франка и нет. И денег нет, а Мило требует вернуть долг. Не сможет — вышибала Мило Радован вырежет ему ножом коленные чашечки. Франк покупает пистолет. Поставщики тем временем узнают, что он дерзнул открыть собственное дело. Такое не прощается…- -Качество: BDRip
Контейнер: MKV
Видео: AVC, 1280x720 (16:9), 7699 kbps, 24 fps, 0.348 bpp
Аудио №1: русский / AC3 / 2.0 / 48 kHz / 192 kbps / AVO ( Сергей Рябов )
Аудио №2: русский / AC3 / 5.1 / 48 kHz / 384 kbps / MVO
Аудио №3: русский / AC3 / 5.1 / 48 kHz / 448 kbps / VO ( zaswer5 ) Ненорматив
Аудио №4: русский / AC3 / 5.1 / 48 kHz / 448 kbps / VO ( Алексей "Doctor Joker" Матвеев )
Аудио №5: датский / AC3 / 5.1 / 48 kHz / 448 kbps
Навигация по главам: есть-Media Info и скриншоты
Формат : Matroska
Версия формата : Version 2
Размер файла : 7,38 Гбайт
Продолжительность : 1 ч. 50 м.
Общий поток : 9588 Кбит/сек
Название фильма : = Дилер / Pusher (1996) BDRip 720p by SC Kosmos =
Дата кодирования : UTC 2016-08-24 06:53:01
Программа кодирования : mkvmerge v5.8.0 ('No Sleep / Pillow') built on Sep 2 2012 15:37:04
Библиотека кодирования : libebml v1.2.3 + libmatroska v1.3.0
Attachment : Yes
Видео
Идентификатор : 1
Формат : AVC
Формат/Информация : Advanced Video Codec
Профиль формата : High@L4.1
Параметр CABAC формата : Да
Параметр ReFrames формата : 9 кадров
Идентификатор кодека : V_MPEG4/ISO/AVC
Продолжительность : 1 ч. 50 м.
Битрейт : 7699 Кбит/сек
Ширина : 1280 пикселей
Высота : 720 пикселей
Соотношение сторон : 16:9
Режим частоты кадров : Постоянный
Частота кадров : 24,000 кадра/сек
Цветовое пространство : YUV
Субдискретизация насыщенности : 4:2:0
Битовая глубина : 8 бит
Тип развёртки : Прогрессивная
Бит/(Пиксели*Кадры) : 0.348
Размер потока : 5,75 Гбайт (78%)
Заголовок : Дилер / Pusher (1996) BDRip 720p by SC Kosmos
Библиотека кодирования : x264 core 146 r2538 121396c
Настройки программы : cabac=1 / ref=9 / deblock=1:0:0 / analyse=0x3:0x113 / me=umh / subme=11 / psy=1 / psy_rd=1.00:0.00 / mixed_ref=1 / me_range=32 / chroma_me=1 / trellis=2 / 8x8dct=1 / cqm=0 / deadzone=21,11 / fast_pskip=0 / chroma_qp_offset=-2 / threads=12 / lookahead_threads=3 / sliced_threads=0 / nr=0 / decimate=0 / interlaced=0 / bluray_compat=0 / constrained_intra=0 / bframes=12 / b_pyramid=2 / b_adapt=2 / b_bias=0 / direct=3 / weightb=1 / open_gop=0 / weightp=2 / keyint=240 / keyint_min=24 / scenecut=40 / intra_refresh=0 / rc_lookahead=50 / rc=2pass / mbtree=0 / bitrate=7699 / ratetol=1.0 / qcomp=0.60 / qpmin=0 / qpmax=69 / qpstep=4 / cplxblur=20.0 / qblur=0.5 / vbv_maxrate=62500 / vbv_bufsize=78125 / nal_hrd=none / filler=0 / ip_ratio=1.40 / pb_ratio=1.30 / aq=1:1.00 / zones=152730,157996,b=0.25
Язык : Danish
Default : Да
Forced : Нет
Аудио #1
Идентификатор : 2
Формат : AC-3
Формат/Информация : Audio Coding 3
Расширение режима : CM (complete main)
Параметр Endianness формата : Big
Идентификатор кодека : A_AC3
Продолжительность : 1 ч. 50 м.
Вид битрейта : Постоянный
Битрейт : 192 Кбит/сек
Каналы : 2 канала
Расположение каналов : Front: L R
Частота : 48,0 КГц
Битовая глубина : 16 бит
Метод сжатия : С потерями
Размер потока : 151 Мбайт (2%)
Заголовок : AVO ( Сергей Рябов )
Язык : Russian
Default : Да
Forced : Нет
Аудио #2
Идентификатор : 3
Формат : AC-3
Формат/Информация : Audio Coding 3
Расширение режима : CM (complete main)
Параметр Endianness формата : Big
Идентификатор кодека : A_AC3
Продолжительность : 1 ч. 50 м.
Вид битрейта : Постоянный
Битрейт : 384 Кбит/сек
Каналы : 6 каналов
Расположение каналов : Front: L C R, Side: L R, LFE
Частота : 48,0 КГц
Битовая глубина : 16 бит
Метод сжатия : С потерями
Размер потока : 303 Мбайт (4%)
Заголовок : MVO
Язык : Russian
Default : Нет
Forced : Нет
Аудио #3
Идентификатор : 4
Формат : AC-3
Формат/Информация : Audio Coding 3
Расширение режима : CM (complete main)
Параметр Endianness формата : Big
Идентификатор кодека : A_AC3
Продолжительность : 1 ч. 50 м.
Вид битрейта : Постоянный
Битрейт : 448 Кбит/сек
Каналы : 6 каналов
Расположение каналов : Front: L C R, Side: L R, LFE
Частота : 48,0 КГц
Битовая глубина : 16 бит
Метод сжатия : С потерями
Размер потока : 353 Мбайт (5%)
Заголовок : VO ( zaswer5 ) Ненорматив
Язык : Russian
Default : Нет
Forced : Нет
Аудио #4
Идентификатор : 5
Формат : AC-3
Формат/Информация : Audio Coding 3
Расширение режима : CM (complete main)
Параметр Endianness формата : Big
Идентификатор кодека : A_AC3
Продолжительность : 1 ч. 50 м.
Вид битрейта : Постоянный
Битрейт : 448 Кбит/сек
Каналы : 6 каналов
Расположение каналов : Front: L C R, Side: L R, LFE
Частота : 48,0 КГц
Битовая глубина : 16 бит
Метод сжатия : С потерями
Размер потока : 353 Мбайт (5%)
Заголовок : AVO ( Алексей "Doctor Joker" Матвеев )
Язык : Russian
Default : Нет
Forced : Нет
Аудио #5
Идентификатор : 6
Формат : AC-3
Формат/Информация : Audio Coding 3
Расширение режима : CM (complete main)
Параметр Endianness формата : Big
Идентификатор кодека : A_AC3
Продолжительность : 1 ч. 50 м.
Вид битрейта : Постоянный
Битрейт : 448 Кбит/сек
Каналы : 6 каналов
Расположение каналов : Front: L C R, Side: L R, LFE
Частота : 48,0 КГц
Битовая глубина : 16 бит
Метод сжатия : С потерями
Размер потока : 353 Мбайт (5%)
Язык : Danish
Default : Нет
Forced : Нет
Текст #1
Идентификатор : 7
Формат : UTF-8
Идентификатор кодека : S_TEXT/UTF8
Идентификатор кодека/Информация : UTF-8 Plain Text
Заголовок : Ненорматив
Язык : Russian
Default : Нет
Forced : Нет
Текст #2
Идентификатор : 8
Формат : UTF-8
Идентификатор кодека : S_TEXT/UTF8
Идентификатор кодека/Информация : UTF-8 Plain Text
Язык : English
Default : Нет
Forced : Нет
Меню
00:00:00.000 : en:00:00:00.000
00:08:18.750 : en:00:08:18.750
00:19:57.917 : en:00:19:57.917
00:34:12.083 : en:00:34:12.083
00:41:31.667 : en:00:41:31.667
00:50:17.083 : en:00:50:17.083
00:59:57.917 : en:00:59:57.917
01:06:16.667 : en:01:06:16.667
01:14:29.583 : en:01:14:29.583
01:20:07.917 : en:01:20:07.917
01:40:47.083 : en:01:40:47.083
01:45:48.750 : en:01:45:48.750-
-

Дилер 2 / Pusher 2 (2004) | P, A, L1

Дилер 2Pusher 2- Продолжительность: 01:36:24
Перевод: Профессиональный (многоголосный, закадровый), Авторский, Любительский (одноголосый, закадровый)
Субтитры: русские, английские-В ролях: Мадс Миккельсен, Лейф Сильвестр, Энн Серенсен, Ойвинд Хаген-Траберг, Курт Нилсен, Карстен Шрёдер, Мария Эрвольтер, Дэн Доммер, Свен Эрик Эскеланд Ларсен, Жан Пьер Пёлев-Описание: Освободившись после очередной отсидки, Тони узнает, что у него есть ребенок. Он отчаянно пытается поправить свое положение и свой имидж неудачника. Он хочет завоевать уважение своего отца, самого злобного гангстера Копенгагена, которому он должен денег. Но как он ни старается, из-за его непреодолимой тупости дела становятся все хуже и хуже. Единственное, что действительно идет в гору — его плохая репутация. А его отец делает окончательный вывод, что Тони — бесполезный и нежелательный человек. Особенно после того, как тот, желая угодить папаше, стащил новенькую «Феррари», оборудованную радиомаяком, и пригнал ее к отцовскому дому. Среди наркотиков и фени, продажной любви и бессмысленного насилия, все больше теряя голову, Тони отчаянно пытается устроиться в блатном мире.- -Качество: BDRip
Контейнер: MKV
Видео: AVC, 1280x720 (16:9), 10000 kbps, 25 fps, 0.434 bpp
Аудио №1: русский / AC3 / 2.0 / 48 kHz / 192 kbps / MVO ( Кинопоказ )
Аудио №2: русский / AC3 / 5.1 / 48 kHz / 384 kbps / AVO ( Карповский )
Аудио №3: русский / AC3 / 5.1 / 48 kHz / 448 kbps / VO ( zaswer5 ) Ненорматив
Аудио №4: датский / AC3 / 5.1 / 48 kHz / 448 kbps
Навигация по главам: есть-Media Info и скриншоты
Формат : Matroska
Версия формата : Version 2
Размер файла : 7,57 Гбайт
Продолжительность : 1 ч. 36 м.
Общий поток : 11,2 Мбит/сек
Название фильма : = Дилер 2 / Pusher 2 (2004) BDRip 720p by SC Kosmos =
Дата кодирования : UTC 2016-08-19 23:17:00
Программа кодирования : mkvmerge v5.8.0 ('No Sleep / Pillow') built on Sep 2 2012 15:37:04
Библиотека кодирования : libebml v1.2.3 + libmatroska v1.3.0
Attachment : Yes
Видео
Идентификатор : 1
Формат : AVC
Формат/Информация : Advanced Video Codec
Профиль формата : High@L4.1
Параметр CABAC формата : Да
Параметр ReFrames формата : 9 кадров
Идентификатор кодека : V_MPEG4/ISO/AVC
Продолжительность : 1 ч. 36 м.
Битрейт : 10000 Кбит/сек
Ширина : 1280 пикселей
Высота : 720 пикселей
Соотношение сторон : 16:9
Режим частоты кадров : Постоянный
Частота кадров : 25,000 кадров/сек
Цветовое пространство : YUV
Субдискретизация насыщенности : 4:2:0
Битовая глубина : 8 бит
Тип развёртки : Прогрессивная
Бит/(Пиксели*Кадры) : 0.434
Размер потока : 6,55 Гбайт (87%)
Заголовок : Дилер 2 / Pusher 2 (2004) BDRip 720p by SC Kosmos
Библиотека кодирования : x264 core 146 r2538 121396c
Настройки программы : cabac=1 / ref=9 / deblock=1:0:0 / analyse=0x3:0x113 / me=umh / subme=11 / psy=1 / psy_rd=1.00:0.00 / mixed_ref=1 / me_range=32 / chroma_me=1 / trellis=2 / 8x8dct=1 / cqm=0 / deadzone=21,11 / fast_pskip=0 / chroma_qp_offset=-2 / threads=12 / lookahead_threads=3 / sliced_threads=0 / nr=0 / decimate=0 / interlaced=0 / bluray_compat=0 / constrained_intra=0 / bframes=12 / b_pyramid=2 / b_adapt=2 / b_bias=0 / direct=3 / weightb=1 / open_gop=0 / weightp=2 / keyint=250 / keyint_min=25 / scenecut=40 / intra_refresh=0 / rc_lookahead=50 / rc=2pass / mbtree=0 / bitrate=10000 / ratetol=1.0 / qcomp=0.60 / qpmin=0 / qpmax=69 / qpstep=4 / cplxblur=20.0 / qblur=0.5 / vbv_maxrate=62500 / vbv_bufsize=78125 / nal_hrd=none / filler=0 / ip_ratio=1.40 / pb_ratio=1.30 / aq=1:1.00 / zones=136100,144024,b=0.25
Язык : Danish
Default : Да
Forced : Нет
Аудио #1
Идентификатор : 2
Формат : AC-3
Формат/Информация : Audio Coding 3
Расширение режима : CM (complete main)
Параметр Endianness формата : Big
Идентификатор кодека : A_AC3
Продолжительность : 1 ч. 36 м.
Вид битрейта : Постоянный
Битрейт : 192 Кбит/сек
Каналы : 2 канала
Расположение каналов : Front: L R
Частота : 48,0 КГц
Битовая глубина : 16 бит
Метод сжатия : С потерями
Размер потока : 132 Мбайт (2%)
Заголовок : MVO ( Кинопоказ )
Язык : Russian
Default : Да
Forced : Нет
Аудио #2
Идентификатор : 3
Формат : AC-3
Формат/Информация : Audio Coding 3
Расширение режима : CM (complete main)
Параметр Endianness формата : Big
Идентификатор кодека : A_AC3
Продолжительность : 1 ч. 36 м.
Вид битрейта : Постоянный
Битрейт : 192 Кбит/сек
Каналы : 2 канала
Расположение каналов : Front: L R
Частота : 48,0 КГц
Битовая глубина : 16 бит
Метод сжатия : С потерями
Размер потока : 132 Мбайт (2%)
Заголовок : AVO ( Карповский )
Язык : Russian
Default : Нет
Forced : Нет
Аудио #3
Идентификатор : 4
Формат : AC-3
Формат/Информация : Audio Coding 3
Расширение режима : CM (complete main)
Параметр Endianness формата : Big
Идентификатор кодека : A_AC3
Продолжительность : 1 ч. 36 м.
Вид битрейта : Постоянный
Битрейт : 448 Кбит/сек
Каналы : 6 каналов
Расположение каналов : Front: L C R, Side: L R, LFE
Частота : 48,0 КГц
Битовая глубина : 16 бит
Метод сжатия : С потерями
Размер потока : 309 Мбайт (4%)
Заголовок : VO ( zaswer5 )
Язык : Russian
Default : Нет
Forced : Нет
Аудио #4
Идентификатор : 5
Формат : AC-3
Формат/Информация : Audio Coding 3
Расширение режима : CM (complete main)
Параметр Endianness формата : Big
Идентификатор кодека : A_AC3
Продолжительность : 1 ч. 36 м.
Вид битрейта : Постоянный
Битрейт : 448 Кбит/сек
Каналы : 6 каналов
Расположение каналов : Front: L C R, Side: L R, LFE
Частота : 48,0 КГц
Битовая глубина : 16 бит
Метод сжатия : С потерями
Размер потока : 309 Мбайт (4%)
Язык : Danish
Default : Нет
Forced : Нет
Текст #1
Идентификатор : 6
Формат : UTF-8
Идентификатор кодека : S_TEXT/UTF8
Идентификатор кодека/Информация : UTF-8 Plain Text
Язык : Russian
Default : Нет
Forced : Нет
Текст #2
Идентификатор : 7
Формат : UTF-8
Идентификатор кодека : S_TEXT/UTF8
Идентификатор кодека/Информация : UTF-8 Plain Text
Язык : English
Default : Нет
Forced : Нет
Меню
00:00:00.000 : en:00:00:00.000
00:08:04.400 : en:00:08:04.400
00:13:08.800 : en:00:13:08.800
00:17:37.200 : en:00:17:37.200
00:23:52.400 : en:00:23:52.400
00:31:19.200 : en:00:31:19.200
00:35:29.600 : en:00:35:29.600
00:41:51.200 : en:00:41:51.200
00:52:00.000 : en:00:52:00.000
00:56:23.200 : en:00:56:23.200
01:04:08.400 : en:01:04:08.400
01:08:16.800 : en:01:08:16.800
01:13:09.200 : en:01:13:09.200
01:21:00.400 : en:01:21:00.400
01:27:54.000 : en:01:27:54.000
01:30:42.400 : en:01:30:42.400-
-

Дилер 3 / Pusher 3 (2005) | P, L1

Дилер 3Pusher 3«I'm the Angel of Death»- Продолжительность: 01:43:51
Перевод: Профессиональный (многоголосный, закадровый), 3 х Любительский (одноголосый, закадровый)
Субтитры: русские, английские-В ролях: Златко Бурич, Мариэла Декич, Ильяс Агач, Ваня Бажичич, Рамадан Хусейни, Славко Лабович-Описание: Пожилому наркоторговцу Мило этот день пообещал быть трудным: он посещает собрания Анонимных Наркоманов, у его дочери день рождения, да еще и молодые бандиты-мусульмане "нового поколения" изо всех сил стараются занять место Мило в наркобизнесе. Но они опрометчиво не подумали, на что способен бывалый югославский уголовник ради благополучия своей Семьи.- -Качество: BDRip
Контейнер: MKV
Видео: AVC, 1280x720 (16:9), 9000 kbps, 25 fps, 0.391 bpp
Аудио №1: русский / AC3 / 2.0 / 48 kHz / 192 kbps / MVO ( Кинопоказ )
Аудио №2: русский / AC3 / 5.1 / 48 kHz / 448 kbps / VO ( Алексей "Doctor Joker" Матвеев )
Аудио №3: русский / AC3 / 2.0 / 48 kHz / 256 kbps / VO ( dima-l ) Ненорматив
Аудио №4: русский / AC3 / 2.0 / 48 kHz / 192 kbps / VO ( zaswer5 ) Ненорматив
Аудио №5: датский / AC3 / 5.1 / 48 kHz / 448 kbps
Навигация по главам: есть-Media Info и скриншоты
Формат : Matroska
Версия формата : Version 2
Размер файла : 7,62 Гбайт
Продолжительность : 1 ч. 43 м.
Общий поток : 10,5 Мбит/сек
Название фильма : = Дилер 3 / Pusher 3 (2005) BDRip 720p by SC Kosmos =
Дата кодирования : UTC 2016-08-20 08:20:29
Программа кодирования : mkvmerge v5.8.0 ('No Sleep / Pillow') built on Sep 2 2012 15:37:04
Библиотека кодирования : libebml v1.2.3 + libmatroska v1.3.0
Attachment : Yes
Видео
Идентификатор : 1
Формат : AVC
Формат/Информация : Advanced Video Codec
Профиль формата : High@L4.1
Параметр CABAC формата : Да
Параметр ReFrames формата : 9 кадров
Идентификатор кодека : V_MPEG4/ISO/AVC
Продолжительность : 1 ч. 43 м.
Битрейт : 9000 Кбит/сек
Ширина : 1280 пикселей
Высота : 720 пикселей
Соотношение сторон : 16:9
Режим частоты кадров : Постоянный
Частота кадров : 25,000 кадров/сек
Цветовое пространство : YUV
Субдискретизация насыщенности : 4:2:0
Битовая глубина : 8 бит
Тип развёртки : Прогрессивная
Бит/(Пиксели*Кадры) : 0.391
Размер потока : 6,35 Гбайт (83%)
Заголовок : Дилер 3 / Pusher 3 (2005) BDRip 720p by SC Kosmos
Библиотека кодирования : x264 core 146 r2538 121396c
Настройки программы : cabac=1 / ref=9 / deblock=1:-1:-1 / analyse=0x3:0x113 / me=umh / subme=11 / psy=1 / psy_rd=1.10:0.00 / mixed_ref=1 / me_range=32 / chroma_me=1 / trellis=2 / 8x8dct=1 / cqm=0 / deadzone=21,11 / fast_pskip=0 / chroma_qp_offset=-2 / threads=12 / lookahead_threads=3 / sliced_threads=0 / nr=0 / decimate=0 / interlaced=0 / bluray_compat=0 / constrained_intra=0 / bframes=12 / b_pyramid=2 / b_adapt=2 / b_bias=0 / direct=3 / weightb=1 / open_gop=0 / weightp=2 / keyint=250 / keyint_min=25 / scenecut=40 / intra_refresh=0 / rc_lookahead=50 / rc=2pass / mbtree=0 / bitrate=9000 / ratetol=1.0 / qcomp=0.60 / qpmin=0 / qpmax=69 / qpstep=4 / cplxblur=20.0 / qblur=0.5 / vbv_maxrate=62500 / vbv_bufsize=78125 / nal_hrd=none / filler=0 / ip_ratio=1.40 / pb_ratio=1.30 / aq=1:1.00 / zones=147380,155177,b=0.25
Язык : Danish
Default : Да
Forced : Нет
Аудио #1
Идентификатор : 2
Формат : AC-3
Формат/Информация : Audio Coding 3
Расширение режима : CM (complete main)
Параметр Endianness формата : Big
Идентификатор кодека : A_AC3
Продолжительность : 1 ч. 43 м.
Вид битрейта : Постоянный
Битрейт : 192 Кбит/сек
Каналы : 2 канала
Расположение каналов : Front: L R
Частота : 48,0 КГц
Битовая глубина : 16 бит
Метод сжатия : С потерями
Размер потока : 143 Мбайт (2%)
Заголовок : MVO ( Кинопоказ )
Язык : Russian
Default : Да
Forced : Нет
Аудио #2
Идентификатор : 3
Формат : AC-3
Формат/Информация : Audio Coding 3
Расширение режима : CM (complete main)
Параметр Endianness формата : Big
Идентификатор кодека : A_AC3
Продолжительность : 1 ч. 43 м.
Вид битрейта : Постоянный
Битрейт : 448 Кбит/сек
Каналы : 6 каналов
Расположение каналов : Front: L C R, Side: L R, LFE
Частота : 48,0 КГц
Битовая глубина : 16 бит
Метод сжатия : С потерями
Размер потока : 333 Мбайт (4%)
Заголовок : AVO ( Алексей "Doctor Joker" Матвеев )
Язык : Russian
Default : Нет
Forced : Нет
Аудио #3
Идентификатор : 4
Формат : AC-3
Формат/Информация : Audio Coding 3
Расширение режима : CM (complete main)
Параметр Endianness формата : Big
Идентификатор кодека : A_AC3
Продолжительность : 1 ч. 43 м.
Вид битрейта : Постоянный
Битрейт : 256 Кбит/сек
Каналы : 2 канала
Расположение каналов : Front: L R
Частота : 48,0 КГц
Битовая глубина : 16 бит
Метод сжатия : С потерями
Размер потока : 190 Мбайт (2%)
Заголовок : VO ( dima-l ) Ненорматив
Язык : Russian
Default : Нет
Forced : Нет
Аудио #4
Идентификатор : 5
Формат : AC-3
Формат/Информация : Audio Coding 3
Расширение режима : CM (complete main)
Параметр Endianness формата : Big
Идентификатор кодека : A_AC3
Продолжительность : 1 ч. 43 м.
Вид битрейта : Постоянный
Битрейт : 192 Кбит/сек
Каналы : 2 канала
Расположение каналов : Front: L R
Частота : 48,0 КГц
Битовая глубина : 16 бит
Метод сжатия : С потерями
Размер потока : 143 Мбайт (2%)
Заголовок : VO ( zaswer5 ) Ненорматив
Язык : Russian
Default : Нет
Forced : Нет
Аудио #5
Идентификатор : 6
Формат : AC-3
Формат/Информация : Audio Coding 3
Расширение режима : CM (complete main)
Параметр Endianness формата : Big
Идентификатор кодека : A_AC3
Продолжительность : 1 ч. 43 м.
Вид битрейта : Постоянный
Битрейт : 448 Кбит/сек
Каналы : 6 каналов
Расположение каналов : Front: L C R, Side: L R, LFE
Частота : 48,0 КГц
Битовая глубина : 16 бит
Метод сжатия : С потерями
Размер потока : 333 Мбайт (4%)
Язык : Danish
Default : Нет
Forced : Нет
Текст #1
Идентификатор : 7
Формат : UTF-8
Идентификатор кодека : S_TEXT/UTF8
Идентификатор кодека/Информация : UTF-8 Plain Text
Заголовок : CARTER. J. T ( Ненорматив )
Язык : Russian
Default : Нет
Forced : Нет
Текст #2
Идентификатор : 8
Формат : UTF-8
Идентификатор кодека : S_TEXT/UTF8
Идентификатор кодека/Информация : UTF-8 Plain Text
Заголовок : Fraj Sibirskij
Язык : Russian
Default : Нет
Forced : Нет
Текст #3
Идентификатор : 9
Формат : UTF-8
Идентификатор кодека : S_TEXT/UTF8
Идентификатор кодека/Информация : UTF-8 Plain Text
Язык : English
Default : Да
Forced : Нет
Меню
00:00:00.000 : en:00:00:00.000
00:05:42.480 : en:00:05:42.480
00:12:40.080 : en:00:12:40.080
00:19:06.080 : en:00:19:06.080
00:27:48.880 : en:00:27:48.880
00:34:36.080 : en:00:34:36.080
00:39:48.080 : en:00:39:48.080
00:46:56.080 : en:00:46:56.080
00:50:44.480 : en:00:50:44.480
00:59:40.880 : en:00:59:40.880
01:07:13.280 : en:01:07:13.280
01:12:50.080 : en:01:12:50.080
01:24:31.680 : en:01:24:31.680
01:30:02.480 : en:01:30:02.480
01:34:20.480 : en:01:34:20.480
01:38:11.680 : en:01:38:11.680-
[Профиль] [ЛС]
Кто просматривает тему:

Показать сообщения:    

Текущее время: Сегодня 06:07

Часовой пояс: GMT



Вы не можете начинать темы
Вы не можете отвечать на сообщения
Вы не можете редактировать свои сообщения
Вы не можете удалять свои сообщения
Вы не можете голосовать в опросах
Вы не можете прикреплять файлы к сообщениям
Вы не можете скачивать файлы