Дикий Запад / National Geographic: The Wild West (Энди Митчел / Andy Mitchell) [2013, Документальный, BDRip]

 
Автор Сообщение

reversefile ®

Пол:

Стаж: 4 года 5 месяцев

Сообщений: 842

Откуда: ReverseFile.org



Награды: Нет

Торрент-статистика

Создавать темы 11-Авг-2014 06:20

[Цитировать]

Дикий Запад
National Geographic: The Wild West
-
Год выпуска: 2013
Страна: США, National Geographic Television
Жанр: Документальный
Продолжительность: ~3х 00:45:06
Перевод: Одноголосый (закадровый) Студия АРК-ТВ
Русские субтитры: нет-Режиссер: Энди Митчел / Andy Mitchell-Описание: Before cowboys and before the Gold Rush, there were the original outlaws of the West — the truly untamed animals that call America home. Elephant seals settling their scores with blood; black and brown bears prospecting for pink gold in the form of thousands of salmon; and bobcats exploring the New World alone. Now, venture inside the coasts, deserts and mountains where these wild creatures roam.
Перед тем как на Дикий Запад пришли ковбои и задолго до того, как здесь началась золотая лихорадка, в этих краях были совсем другие преступники, по-настоящему дикие животные, которые называют Америку своим домом. Морские слоны, которые дерутся до крови; черные и бурые медведи, занятые ловлей лосося; рыжие рыси, в одиночестве исследующие Новый мир… «Дикий Запад» (National Geographic: The Wild West) – документальный телефильм, своеобразный «звериный вестерн», созданный съемочной группой канала National Geographic. Эпическое путешествие в мир нетронутой природы, где и сегодня на внутренних водоемах, в пустынях и горах эти дикие существа по-прежнему живут в местах своего изначального обитания.- -Источник:
Качество: BDRip
Формат: AVI
Видео: 720x400 (16:9), 25,000 fps, XviD build 73, ~2096 kbps avg, 0.29 bit/pixel
Аудио: 48.0 kHz, AC3 Dolby Digital, 2/0 (L,R) ch, ~192.00 kbps avg

MI

Общее
Полное имя : A:\Фильмы\National Geographic.The Wild West (2013) BDRip\Episode.1.Gold.Rush.avi
Формат : AVI
Формат/Информация : Audio Video Interleave
Размер файла : 741 Мбайт
Продолжительность : 45 м.
Общий поток : 2297 Кбит/сек
Программа кодирования : VirtualDubMod 1.5.10.3 | www.virtualdub-fr.org || (build 2550/release)
Библиотека кодирования : VirtualDubMod build 2550/release
Видео
Идентификатор : 0
Формат : MPEG-4 Visual
Профиль формата : Advanced Simple@L5
Параметр BVOP формата : 1
Параметр QPel формата : Нет
Параметр GMC формата : Без точки перехода
Параметр матрицы формата : Default (H.263)
Идентификатор кодека : XVID
Идентификатор кодека/Подсказка : XviD
Продолжительность : 45 м.
Битрейт : 2096 Кбит/сек
Ширина : 720 пикселей
Высота : 400 пикселей
Соотношение сторон : 16:9
Частота кадров : 25,000 кадров/сек
Цветовое пространство : YUV
Субдискретизация насыщенности : 4:2:0
Битовая глубина : 8 бит
Тип развёртки : Прогрессивная
Метод сжатия : С потерями
Бит/(Пиксели*Кадры) : 0.291
Размер потока : 676 Мбайт (91%)
Библиотека кодирования : XviD 73
Аудио
Идентификатор : 1
Формат : AC-3
Формат/Информация : Audio Coding 3
Расширение режима : CM (complete main)
Параметр Endianness формата : Big
Идентификатор кодека : 2000
Продолжительность : 44 м.
Вид битрейта : Постоянный
Битрейт : 192 Кбит/сек
Каналы : 2 канала
Расположение каналов : Front: L R
Частота : 48,0 КГц
Битовая глубина : 16 бит
Метод сжатия : С потерями
Размер потока : 61,8 Мбайт (8%)
Выравнивание : Разделение по промежуткам
Продолжительность промежутка : 40 мс. (1,00 видеокадр)
Время предзагрузки промежутка : 500 мс.
Общее
Полное имя : A:\Фильмы\National Geographic.The Wild West (2013) BDRip\Episode.2.True.Grit.avi
Формат : AVI
Формат/Информация : Audio Video Interleave
Размер файла : 740 Мбайт
Продолжительность : 45 м.
Общий поток : 2294 Кбит/сек
Программа кодирования : VirtualDubMod 1.5.10.3 | www.virtualdub-fr.org || (build 2550/release)
Библиотека кодирования : VirtualDubMod build 2550/release
Видео
Идентификатор : 0
Формат : MPEG-4 Visual
Профиль формата : Advanced Simple@L5
Параметр BVOP формата : 1
Параметр QPel формата : Нет
Параметр GMC формата : Без точки перехода
Параметр матрицы формата : Default (H.263)
Идентификатор кодека : XVID
Идентификатор кодека/Подсказка : XviD
Продолжительность : 45 м.
Битрейт : 2092 Кбит/сек
Ширина : 720 пикселей
Высота : 400 пикселей
Соотношение сторон : 16:9
Частота кадров : 25,000 кадров/сек
Цветовое пространство : YUV
Субдискретизация насыщенности : 4:2:0
Битовая глубина : 8 бит
Тип развёртки : Прогрессивная
Метод сжатия : С потерями
Бит/(Пиксели*Кадры) : 0.291
Размер потока : 675 Мбайт (91%)
Библиотека кодирования : XviD 73
Аудио
Идентификатор : 1
Формат : AC-3
Формат/Информация : Audio Coding 3
Расширение режима : CM (complete main)
Параметр Endianness формата : Big
Идентификатор кодека : 2000
Продолжительность : 45 м.
Вид битрейта : Постоянный
Битрейт : 192 Кбит/сек
Каналы : 2 канала
Расположение каналов : Front: L R
Частота : 48,0 КГц
Битовая глубина : 16 бит
Метод сжатия : С потерями
Размер потока : 61,9 Мбайт (8%)
Выравнивание : Разделение по промежуткам
Продолжительность промежутка : 40 мс. (1,00 видеокадр)
Время предзагрузки промежутка : 500 мс.
Общее
Полное имя : A:\Фильмы\National Geographic.The Wild West (2013) BDRip\Episode.3.High.Noon.avi
Формат : AVI
Формат/Информация : Audio Video Interleave
Размер файла : 741 Мбайт
Продолжительность : 45 м.
Общий поток : 2297 Кбит/сек
Программа кодирования : VirtualDubMod 1.5.10.3 | www.virtualdub-fr.org || (build 2550/release)
Библиотека кодирования : VirtualDubMod build 2550/release
Видео
Идентификатор : 0
Формат : MPEG-4 Visual
Профиль формата : Advanced Simple@L5
Параметр BVOP формата : 1
Параметр QPel формата : Нет
Параметр GMC формата : Без точки перехода
Параметр матрицы формата : Default (H.263)
Идентификатор кодека : XVID
Идентификатор кодека/Подсказка : XviD
Продолжительность : 45 м.
Битрейт : 2095 Кбит/сек
Ширина : 720 пикселей
Высота : 400 пикселей
Соотношение сторон : 16:9
Частота кадров : 25,000 кадров/сек
Цветовое пространство : YUV
Субдискретизация насыщенности : 4:2:0
Битовая глубина : 8 бит
Тип развёртки : Прогрессивная
Метод сжатия : С потерями
Бит/(Пиксели*Кадры) : 0.291
Размер потока : 676 Мбайт (91%)
Библиотека кодирования : XviD 73
Аудио
Идентификатор : 1
Формат : AC-3
Формат/Информация : Audio Coding 3
Расширение режима : CM (complete main)
Параметр Endianness формата : Big
Идентификатор кодека : 2000
Продолжительность : 45 м.
Вид битрейта : Постоянный
Битрейт : 192 Кбит/сек
Каналы : 2 канала
Расположение каналов : Front: L R
Частота : 48,0 КГц
Битовая глубина : 16 бит
Метод сжатия : С потерями
Размер потока : 61,8 Мбайт (8%)
Выравнивание : Разделение по промежуткам
Продолжительность промежутка : 40 мс. (1,00 видеокадр)
Время предзагрузки промежутка : 500 мс.

Список выпусков/серий


Episode 1: Gold Rush / Золотая лихорадка
Продолжительность: 00:45:06
In an eat-or-be-eaten environment, see how the smallest mouse to the largest bobcat lives in a world where every day is unpredictable. Our cameras are front and center. We'll capture the famed upstream swim of the Alaskan salmon in brilliant detail. Then get inside the world of the creatures that call the redwood forest home. And, see how snakes, owls, bobcats and mice all battle for food, shelter and survival among the tallest trees on Earth. Who will take their post as "king" of their land?-Episode 2: True Grit / Звериный вестерн
Продолжительность: 00:45:06
Горы, высокие скалистые горы, окружив словно частоколом, они охраняют сердце нашего дикого запада. Это эпический спектакль, где бандиты и герои одиночки, сталкиваются лицом к лицу. А добропорядочные поселенцы стараются держаться подальше, в этих краях требуется твердость характера что бы выжить.
Only the strong survive in the Rocky Mountains. Meet the gray wolves, outlaws of the mountains, feared and respected by all who dwell there. Watch how a pack fights, hunts and keeps order. Like the wolves, grizzly bears strike fear into the hearts of all who live in their territory. Each year they teach the young guns how to survive rough-and-tumble mountains. And witness cowboys riding bucking broncos, using techniques passed down for generations. It's man vs. beast and these beasts fight back.-Episode 3: High Noon / Ровно в полдень
Продолжительность: 00:45:06
Пустыня она больше чем вы себе представляете и здесь хуже чем в аду, мы пытаемся покорить её, подчинить её, но она не поддается. Её обитателям приходится быть бандитами, героями, перебежчиками, преступниками. Среди них есть хорошие, плохие, и дикие.
Journey to the most inhospitable environments in the country -- the deserts of the West. The creatures that live here are some of the toughest in the land, including vultures, the undertakers of the desert, and hawks, who hunt and roam the desert like a biker gang. And get up-close access to possibly the most vicious desert-dweller of all, the scorpion, whose diet is made up of ... mostly other scorpions. Only the toughest of the tough can outwit their enemies and survive here
.

Скриншоты


[Профиль] [ЛС]
Показать сообщения:    

Текущее время: Сегодня 22:09

Часовой пояс: GMT



Вы не можете начинать темы
Вы не можете отвечать на сообщения
Вы не можете редактировать свои сообщения
Вы не можете удалять свои сообщения
Вы не можете голосовать в опросах
Вы не можете прикреплять файлы к сообщениям
Вы не можете скачивать файлы